<svg xmlns="http://www.w3.org/2000/svg" viewBox="0 0 300 100"><style>.st1{display:inline}.st3{fill:#3d4048}.st7{fill:#fff}</style><font horiz-adv-x="1000"><font-face font-family="Nunito-Bold" underline-position="-85" underline-thickness="44"/><glyph unicode="A" horiz-adv-x="744" d="M84-8C61-8 44 0 34 16s-10 35 1 58l264 585c9 19 19 33 32 42 12 8 26 12 42 12 15 0 29-4 42-12 12-9 22-23 31-42L711 74c11-23 11-43 2-58-9-16-25-24-48-24-19 0-33 5-43 14-11 9-20 22-28 41l-50 116H200L151 47c-9-19-18-33-27-42S101-8 84-8m287 574L244 265h256L373 566z"/><glyph unicode="Á" horiz-adv-x="744" d="M84-8C61-8 44 0 34 16s-10 35 1 58l264 585c9 19 19 33 32 42 12 8 26 12 42 12 15 0 29-4 42-12 12-9 22-23 31-42L711 74c11-23 11-43 2-58-9-16-25-24-48-24-19 0-33 5-43 14-11 9-20 22-28 41l-50 116H200L151 47c-9-19-18-33-27-42S101-8 84-8m287 574L244 265h256L373 566m51 205c-8-9-17-13-26-13-10-1-19 2-26 8-8 5-13 12-15 21-3 9-1 18 5 27l78 115c9 14 21 21 34 22s26-3 37-10c11-8 18-18 21-29 3-12-1-24-12-36z"/><glyph unicode="Ă" horiz-adv-x="744" d="M84-8C61-8 44 0 34 16s-10 35 1 58l264 585c9 19 19 33 32 42 12 8 26 12 42 12 15 0 29-4 42-12 12-9 22-23 31-42L711 74c11-23 11-43 2-58-9-16-25-24-48-24-19 0-33 5-43 14-11 9-20 22-28 41l-50 116H200L151 47c-9-19-18-33-27-42S101-8 84-8m287 574L244 265h256L373 566m0 194c-43 0-81 12-112 35-32 23-54 55-65 98-3 13-2 24 5 33 6 9 14 13 23 14 14 1 24-1 31-7 7-7 11-14 13-22 7-27 20-47 41-58 20-12 41-18 64-18s45 6 65 18c20 11 33 31 40 58 2 8 6 15 13 22 7 6 17 8 31 7 9-1 17-5 24-14 6-9 7-20 4-33-11-43-32-75-64-98s-70-35-113-35z"/><glyph unicode="Ắ" horiz-adv-x="744" d="M84-8C61-8 44 0 34 16s-10 35 1 58l264 585c9 19 19 33 32 42 12 8 26 12 42 12 15 0 29-4 42-12 12-9 22-23 31-42L711 74c11-23 11-43 2-58-9-16-25-24-48-24-19 0-33 5-43 14-11 9-20 22-28 41l-50 116H200L151 47c-9-19-18-33-27-42S101-8 84-8m287 574L244 265h256L373 566m33 321c-9-11-20-15-32-14s-21 7-27 17c-7 9-7 20 0 32l51 92c8 14 18 22 31 24 13 1 25-1 36-8s18-17 21-28c3-12-1-24-12-37M373 760c-43 0-79 11-108 33s-48 51-57 87c-3 13-2 23 3 31 4 7 11 11 20 12s17 0 24-3c6-3 11-11 14-22 7-20 19-36 36-49s40-19 68-19 51 6 68 19 29 29 36 49c3 11 8 19 15 22 6 3 14 4 23 3s16-5 21-12c5-8 5-18 2-31-9-36-27-65-56-87s-66-33-109-33z"/><glyph unicode="Ặ" horiz-adv-x="744" d="M84-8C61-8 44 0 34 16s-10 35 1 58l264 585c9 19 19 33 32 42 12 8 26 12 42 12 15 0 29-4 42-12 12-9 22-23 31-42L711 74c11-23 11-43 2-58-9-16-25-24-48-24-19 0-33 5-43 14-11 9-20 22-28 41l-50 116H200L151 47c-9-19-18-33-27-42S101-8 84-8m287 574L244 265h256L373 566m0-775c-43 0-65 21-65 63 0 41 22 62 65 62 44 0 66-21 66-62 0-42-22-63-66-63m0 969c-43 0-81 12-112 35-32 23-54 55-65 98-3 13-2 24 5 33 6 9 14 13 23 14 14 1 24-1 31-7 7-7 11-14 13-22 7-27 20-47 41-58 20-12 41-18 64-18s45 6 65 18c20 11 33 31 40 58 2 8 6 15 13 22 7 6 17 8 31 7 9-1 17-5 24-14 6-9 7-20 4-33-11-43-32-75-64-98s-70-35-113-35z"/><glyph unicode="Ằ" horiz-adv-x="744" d="M84-8C61-8 44 0 34 16s-10 35 1 58l264 585c9 19 19 33 32 42 12 8 26 12 42 12 15 0 29-4 42-12 12-9 22-23 31-42L711 74c11-23 11-43 2-58-9-16-25-24-48-24-19 0-33 5-43 14-11 9-20 22-28 41l-50 116H200L151 47c-9-19-18-33-27-42S101-8 84-8m287 574L244 265h256L373 566m-33 321l-68 78c-11 13-14 25-11 37 3 11 10 21 21 28s22 9 35 8c13-2 23-10 31-24l51-92c7-12 8-23 1-32-7-10-16-16-27-17-12-1-23 3-33 14m33-127c-43 0-79 11-108 33s-48 51-57 87c-3 13-2 23 3 31 4 7 11 11 20 12s17 0 24-3c6-3 11-11 14-22 7-20 19-36 36-49s40-19 68-19 51 6 68 19 29 29 36 49c3 11 8 19 15 22 6 3 14 4 23 3s16-5 21-12c5-8 5-18 2-31-9-36-27-65-56-87s-66-33-109-33z"/><glyph unicode="Ẳ" horiz-adv-x="744" d="M84-8C61-8 44 0 34 16s-10 35 1 58l264 585c9 19 19 33 32 42 12 8 26 12 42 12 15 0 29-4 42-12 12-9 22-23 31-42L711 74c11-23 11-43 2-58-9-16-25-24-48-24-19 0-33 5-43 14-11 9-20 22-28 41l-50 116H200L151 47c-9-19-18-33-27-42S101-8 84-8m287 574L244 265h256L373 566m25 314c-9-5-18-7-27-4-10 3-17 7-20 14-4 7-2 13 7 20 21 15 31 30 31 45s-12 23-36 23c-5 0-10 0-15-1l-18-3c-19-5-31 0-36 15s1 26 20 33c12 4 24 7 37 8 12 1 25 2 38 2 29 0 52-5 69-14s25-24 25-43-8-37-23-53c-16-17-33-31-52-42m-25-120c-43 0-79 11-108 33s-48 51-57 87c-3 13-2 23 3 31 4 7 11 11 20 12s17 0 24-3c6-3 11-11 14-22 7-20 19-36 36-49s40-19 68-19 51 6 68 19 29 29 36 49c3 11 8 19 15 22 6 3 14 4 23 3s16-5 21-12c5-8 5-18 2-31-9-36-27-65-56-87s-66-33-109-33z"/><glyph unicode="Ẵ" horiz-adv-x="744" d="M84-8C61-8 44 0 34 16s-10 35 1 58l264 585c9 19 19 33 32 42 12 8 26 12 42 12 15 0 29-4 42-12 12-9 22-23 31-42L711 74c11-23 11-43 2-58-9-16-25-24-48-24-19 0-33 5-43 14-11 9-20 22-28 41l-50 116H200L151 47c-9-19-18-33-27-42S101-8 84-8m287 574L244 265h256L373 566M232 920c-9 1-16 4-21 11s-7 15-4 26c7 25 19 43 37 56 17 13 38 19 63 19 18 0 34-4 49-11s29-15 42-22 25-11 38-11c10 0 19 2 27 6 8 3 14 9 17 18 6 15 18 23 35 22 9-1 17-4 22-10 5-7 6-16 3-27-7-25-19-43-36-56-18-13-39-19-64-19-18 0-34 4-49 11s-29 15-42 22-25 11-38 11c-10 0-19-2-27-5-8-4-14-10-17-19-6-15-18-23-35-22m141-160c-39 0-72 8-99 24-28 15-48 35-59 58-5 11-6 21-3 29 3 7 10 12 19 15 10 3 18 4 24 2s12-7 18-16c9-13 21-23 38-30 17-8 37-12 62-12s46 4 63 12c16 7 28 17 37 30 6 9 12 14 18 16s14 1 24-2c9-3 16-8 19-15 3-8 2-18-3-29-11-23-31-43-58-58-27-16-61-24-100-24z"/><glyph unicode="Ǎ" horiz-adv-x="744" d="M84-8C61-8 44 0 34 16s-10 35 1 58l264 585c9 19 19 33 32 42 12 8 26 12 42 12 15 0 29-4 42-12 12-9 22-23 31-42L711 74c11-23 11-43 2-58-9-16-25-24-48-24-19 0-33 5-43 14-11 9-20 22-28 41l-50 116H200L151 47c-9-19-18-33-27-42S101-8 84-8m287 574L244 265h256L373 566m0 188c-31 0-55 13-73 39l-73 102c-7 9-9 18-6 27 2 9 7 16 15 21s17 7 27 6c9-1 18-7 26-16l84-98 85 98c11 13 23 18 36 16s22-8 29-18c7-11 5-23-4-36l-72-102c-18-26-43-39-74-39z"/><glyph unicode="Â" horiz-adv-x="744" d="M84-8C61-8 44 0 34 16s-10 35 1 58l264 585c9 19 19 33 32 42 12 8 26 12 42 12 15 0 29-4 42-12 12-9 22-23 31-42L711 74c11-23 11-43 2-58-9-16-25-24-48-24-19 0-33 5-43 14-11 9-20 22-28 41l-50 116H200L151 47c-9-19-18-33-27-42S101-8 84-8m287 574L244 265h256L373 566m-84 205c-11-11-23-16-36-14s-23 8-29 19c-7 10-6 21 3 34l73 101c18 27 42 40 73 40 30 0 55-13 74-40l72-101c9-13 11-24 5-34-7-11-16-17-29-19s-26 3-37 14l-85 98z"/><glyph unicode="Ấ" horiz-adv-x="744" d="M84-8C61-8 44 0 34 16s-10 35 1 58l264 585c9 19 19 33 32 42 12 8 26 12 42 12 15 0 29-4 42-12 12-9 22-23 31-42L711 74c11-23 11-43 2-58-9-16-25-24-48-24-19 0-33 5-43 14-11 9-20 22-28 41l-50 116H200L151 47c-9-19-18-33-27-42S101-8 84-8m287 574L244 265h256L373 566m175 299c-8-10-17-14-28-13s-19 6-24 15c-6 9-5 20 2 33l62 110c7 13 17 21 28 23 11 1 22-1 32-6 9-6 16-14 19-25s-1-22-10-34M292 769c-11-12-22-17-34-15-12 1-21 7-26 18-6 10-5 21 4 34l65 97c10 15 21 25 33 31 11 5 24 8 39 8s29-3 41-8c11-6 22-16 31-31l65-97c9-13 10-24 5-34-5-11-14-17-25-18-12-2-24 3-35 15l-82 91z"/><glyph unicode="Ậ" horiz-adv-x="744" d="M84-8C61-8 44 0 34 16s-10 35 1 58l264 585c9 19 19 33 32 42 12 8 26 12 42 12 15 0 29-4 42-12 12-9 22-23 31-42L711 74c11-23 11-43 2-58-9-16-25-24-48-24-19 0-33 5-43 14-11 9-20 22-28 41l-50 116H200L151 47c-9-19-18-33-27-42S101-8 84-8m287 574L244 265h256L373 566m0-775c-43 0-65 21-65 63 0 41 22 62 65 62 44 0 66-21 66-62 0-42-22-63-66-63m-84 980c-11-11-23-16-36-14s-23 8-29 19c-7 10-6 21 3 34l73 101c18 27 42 40 73 40 30 0 55-13 74-40l72-101c9-13 11-24 5-34-7-11-16-17-29-19s-26 3-37 14l-85 98z"/><glyph unicode="Ầ" horiz-adv-x="744" d="M84-8C61-8 44 0 34 16s-10 35 1 58l264 585c9 19 19 33 32 42 12 8 26 12 42 12 15 0 29-4 42-12 12-9 22-23 31-42L711 74c11-23 11-43 2-58-9-16-25-24-48-24-19 0-33 5-43 14-11 9-20 22-28 41l-50 116H200L151 47c-9-19-18-33-27-42S101-8 84-8m287 574L244 265h256L373 566m154 299l-81 103c-9 12-12 23-9 34s9 19 19 25c9 5 20 7 31 6 11-2 21-10 28-23l62-110c7-13 8-24 3-33-6-9-14-14-25-15s-20 3-28 13m-235-96c-11-12-22-17-34-15-12 1-21 7-26 18-6 10-5 21 4 34l65 97c10 15 21 25 33 31 11 5 24 8 39 8s29-3 41-8c11-6 22-16 31-31l65-97c9-13 10-24 5-34-5-11-14-17-25-18-12-2-24 3-35 15l-82 91z"/><glyph unicode="Ẩ" horiz-adv-x="744" d="M84-8C61-8 44 0 34 16s-10 35 1 58l264 585c9 19 19 33 32 42 12 8 26 12 42 12 15 0 29-4 42-12 12-9 22-23 31-42L711 74c11-23 11-43 2-58-9-16-25-24-48-24-19 0-33 5-43 14-11 9-20 22-28 41l-50 116H200L151 47c-9-19-18-33-27-42S101-8 84-8m287 574L244 265h256L373 566m161 299c-9-5-17-5-26-2s-14 8-16 15c-3 7 0 14 8 21 11 9 19 17 26 24 6 7 9 15 9 24 0 16-12 24-37 24-5 0-10 0-15-1l-18-3c-19-5-31 0-36 15-5 17 2 28 21 34 11 3 23 6 36 7 12 1 25 2 38 2 29 0 52-5 69-14 16-9 24-24 24-45 0-13-4-26-13-39s-19-25-32-35c-13-11-25-20-38-27m-242-96c-11-12-22-17-34-15-12 1-21 7-26 18-6 10-5 21 4 34l65 97c10 15 21 25 33 31 11 5 24 8 39 8s29-3 41-8c11-6 22-16 31-31l65-97c9-13 10-24 5-34-5-11-14-17-25-18-12-2-24 3-35 15l-82 91z"/><glyph unicode="Ẫ" horiz-adv-x="744" d="M84-8C61-8 44 0 34 16s-10 35 1 58l264 585c9 19 19 33 32 42 12 8 26 12 42 12 15 0 29-4 42-12 12-9 22-23 31-42L711 74c11-23 11-43 2-58-9-16-25-24-48-24-19 0-33 5-43 14-11 9-20 22-28 41l-50 116H200L151 47c-9-19-18-33-27-42S101-8 84-8m287 574L244 265h256L373 566M232 922c-9 1-16 4-21 11s-7 15-4 26c7 25 19 43 37 56 17 13 38 19 63 19 18 0 34-4 49-11s29-15 42-22 25-11 38-11c10 0 19 2 27 6 8 3 14 9 17 18 6 15 18 23 35 22 9-1 17-4 22-10 5-7 6-16 3-27-7-25-19-43-36-56-18-13-39-19-64-19-18 0-34 4-49 11s-29 15-42 22-25 11-38 11c-10 0-19-2-27-5-8-4-14-10-17-19-6-15-18-23-35-22m51-159c-11-9-21-11-31-8-11 3-18 9-21 18-4 9-2 18 6 27l59 70c11 13 23 23 36 28s26 7 41 7 30-2 43-7 24-15 35-28l58-70c8-9 10-19 7-28-4-9-11-15-21-18s-21 0-32 9l-90 74z"/><glyph unicode="Ȁ" horiz-adv-x="744" d="M84-8C61-8 44 0 34 16s-10 35 1 58l264 585c9 19 19 33 32 42 12 8 26 12 42 12 15 0 29-4 42-12 12-9 22-23 31-42L711 74c11-23 11-43 2-58-9-16-25-24-48-24-19 0-33 5-43 14-11 9-20 22-28 41l-50 116H200L151 47c-9-19-18-33-27-42S101-8 84-8m287 574L244 265h256L373 566M261 770l-87 112c-10 13-13 26-10 37s10 19 21 26c10 6 21 8 34 6 12-3 22-11 29-25l65-121c7-12 7-23 1-32s-14-15-24-16c-11-2-20 2-29 13m144 3l-79 109c-10 13-13 26-9 37s12 20 23 26c11 5 22 7 35 5 12-3 21-11 28-25l61-122c6-12 6-22-1-31s-16-14-27-15c-12-1-22 4-31 16z"/><glyph unicode="Ä" horiz-adv-x="744" d="M84-8C61-8 44 0 34 16s-10 35 1 58l264 585c9 19 19 33 32 42 12 8 26 12 42 12 15 0 29-4 42-12 12-9 22-23 31-42L711 74c11-23 11-43 2-58-9-16-25-24-48-24-19 0-33 5-43 14-11 9-20 22-28 41l-50 116H200L151 47c-9-19-18-33-27-42S101-8 84-8m287 574L244 265h256L373 566m95 220c-41 0-62 21-62 62s21 61 62 61 61-20 61-61-20-62-61-62m-189 0c-19 0-34 5-45 16s-17 26-17 46c0 19 6 34 17 45s26 16 45 16c41 0 62-20 62-61s-21-62-62-62z"/><glyph unicode="Ȧ" horiz-adv-x="744" d="M84-8C61-8 44 0 34 16s-10 35 1 58l264 585c9 19 19 33 32 42 12 8 26 12 42 12 15 0 29-4 42-12 12-9 22-23 31-42L711 74c11-23 11-43 2-58-9-16-25-24-48-24-19 0-33 5-43 14-11 9-20 22-28 41l-50 116H200L151 47c-9-19-18-33-27-42S101-8 84-8m287 574L244 265h256L373 566m0 223c-43 0-65 21-65 63 0 41 22 62 65 62s65-21 65-62c0-42-22-63-65-63z"/><glyph unicode="Ạ" horiz-adv-x="744" d="M84-8C61-8 44 0 34 16s-10 35 1 58l264 585c9 19 19 33 32 42 12 8 26 12 42 12 15 0 29-4 42-12 12-9 22-23 31-42L711 74c11-23 11-43 2-58-9-16-25-24-48-24-19 0-33 5-43 14-11 9-20 22-28 41l-50 116H200L151 47c-9-19-18-33-27-42S101-8 84-8m287 574L244 265h256L373 566m0-775c-43 0-65 21-65 63 0 41 22 62 65 62 44 0 66-21 66-62 0-42-22-63-66-63z"/><glyph unicode="À" horiz-adv-x="744" d="M84-8C61-8 44 0 34 16s-10 35 1 58l264 585c9 19 19 33 32 42 12 8 26 12 42 12 15 0 29-4 42-12 12-9 22-23 31-42L711 74c11-23 11-43 2-58-9-16-25-24-48-24-19 0-33 5-43 14-11 9-20 22-28 41l-50 116H200L151 47c-9-19-18-33-27-42S101-8 84-8m287 574L244 265h256L373 566m-50 205l-96 105c-11 12-14 24-11 36 3 11 10 21 21 29 11 7 23 11 36 10s25-8 34-22l78-115c6-9 8-18 6-27-3-9-8-16-15-21-8-6-17-9-26-8-10 0-19 4-27 13z"/><glyph unicode="Ả" horiz-adv-x="744" d="M84-8C61-8 44 0 34 16s-10 35 1 58l264 585c9 19 19 33 32 42 12 8 26 12 42 12 15 0 29-4 42-12 12-9 22-23 31-42L711 74c11-23 11-43 2-58-9-16-25-24-48-24-19 0-33 5-43 14-11 9-20 22-28 41l-50 116H200L151 47c-9-19-18-33-27-42S101-8 84-8m287 574L244 265h256L373 566m0 191c-25 0-38 9-38 26 0 16 5 28 14 37 9 8 19 15 28 22s14 14 14 23c0 13-13 20-40 20-5 0-10 0-16-1-7-1-13-2-19-3-23-5-37 0-42 15-3 8-2 16 1 23s9 12 20 15c11 4 25 7 40 9s30 3 46 3c33 0 58-6 77-17s28-27 28-46c0-15-4-26-11-35s-16-16-26-22c-10-7-19-13-26-20s-11-17-11-29c0-13-13-20-39-20z"/><glyph unicode="Ȃ" horiz-adv-x="744" d="M84-8C61-8 44 0 34 16s-10 35 1 58l264 585c9 19 19 33 32 42 12 8 26 12 42 12 15 0 29-4 42-12 12-9 22-23 31-42L711 74c11-23 11-43 2-58-9-16-25-24-48-24-19 0-33 5-43 14-11 9-20 22-28 41l-50 116H200L151 47c-9-19-18-33-27-42S101-8 84-8m287 574L244 265h256L373 566M224 760c-9 1-17 6-23 15-7 8-8 19-5 32 11 43 33 76 65 99 31 22 69 33 112 33s81-11 113-33c32-23 53-56 64-99 3-13 2-24-4-32-7-9-15-14-24-15-14-1-24 1-31 8-7 6-11 13-13 21-7 27-20 47-40 59-20 11-42 17-65 17s-44-6-64-17c-20-12-34-32-41-59-2-8-6-15-13-21-7-7-17-9-31-8z"/><glyph unicode="Ā" horiz-adv-x="744" d="M84-8C61-8 44 0 34 16s-10 35 1 58l264 585c9 19 19 33 32 42 12 8 26 12 42 12 15 0 29-4 42-12 12-9 22-23 31-42L711 74c11-23 11-43 2-58-9-16-25-24-48-24-19 0-33 5-43 14-11 9-20 22-28 41l-50 116H200L151 47c-9-19-18-33-27-42S101-8 84-8m287 574L244 265h256L373 566M235 806c-26 0-39 12-39 37s13 37 39 37h277c26 0 39-12 39-37s-13-37-39-37z"/><glyph unicode="Ą" horiz-adv-x="744" d="M683-195c-37 0-65 9-86 28s-32 44-32 76c0 19 5 38 14 55s21 33 37 47c-5 5-9 10-12 16-3 5-7 12-10 20l-50 116H200L151 47c-9-19-18-33-27-42S101-8 84-8C61-8 44 0 34 16c-11 16-11 35 0 58l265 585c9 19 19 33 32 42 12 8 26 12 42 12 15 0 29-4 42-12 12-9 22-23 31-42L711 74c7-17 10-32 8-45-3-14-10-24-21-29-13-7-26-17-37-30-11-14-17-30-17-47s5-29 16-38 24-13 40-13c10 0 20 1 30 4 16 5 27 3 34-6s9-19 6-30c-3-12-11-21-24-26-11-4-21-6-32-7s-22-2-31-2M371 566L244 265h256L373 566z"/><glyph unicode="Å" horiz-adv-x="744" d="M84-8C61-8 44 0 34 16s-10 35 1 58l264 585c9 19 19 33 32 42 12 8 26 12 42 12 15 0 29-4 42-12 12-9 22-23 31-42L711 74c11-23 11-43 2-58-9-16-25-24-48-24-19 0-33 5-43 14-11 9-20 22-28 41l-50 116H200L151 47c-9-19-18-33-27-42S101-8 84-8m287 574L244 265h256L373 566m0 189c-23 0-45 6-64 17s-34 25-45 44-17 39-17 62c0 35 12 64 37 87 24 23 54 35 89 35s65-12 90-35c24-23 36-52 36-87 0-23-5-43-16-62s-26-33-45-44-41-17-65-17m0 57c19 0 35 6 47 19s18 28 18 47-6 34-18 47c-12 12-28 18-47 18s-34-6-46-18c-13-13-19-28-19-47s6-34 19-47c12-13 27-19 46-19z"/><glyph unicode="Ǻ" horiz-adv-x="744" d="M84-8C61-8 44 0 34 16s-10 35 1 58l264 585c9 19 19 33 32 42 12 8 26 12 42 12 15 0 29-4 42-12 12-9 22-23 31-42L711 74c11-23 11-43 2-58-9-16-25-24-48-24-19 0-33 5-43 14-11 9-20 22-28 41l-50 116H200L151 47c-9-19-18-33-27-42S101-8 84-8m287 574L244 265h256L373 566m0 189c-34 0-63 12-86 35s-35 50-35 83 12 61 35 84c23 22 52 33 86 33 23 0 45-6 64-17l68 63c9 8 18 12 27 11s16-4 22-10c6-7 9-14 10-23s-3-17-12-24l-72-62c9-17 14-35 14-55 0-33-12-60-35-83s-52-35-86-35m0 52c19 0 35 6 47 19s18 28 18 47-6 34-18 47c-12 12-28 18-47 18s-34-6-46-18c-13-13-19-28-19-47s6-34 19-47c12-13 27-19 46-19z"/><glyph unicode="Ã" horiz-adv-x="744" d="M84-8C61-8 44 0 34 16s-10 35 1 58l264 585c9 19 19 33 32 42 12 8 26 12 42 12 15 0 29-4 42-12 12-9 22-23 31-42L711 74c11-23 11-43 2-58-9-16-25-24-48-24-19 0-33 5-43 14-11 9-20 22-28 41l-50 116H200L151 47c-9-19-18-33-27-42S101-8 84-8m287 574L244 265h256L373 566M184 769c-11 1-19 4-25 11s-8 16-5 27c8 37 24 66 47 87 23 20 50 30 83 30 19 0 36-3 52-10s31-14 46-23 29-16 43-23c13-7 27-10 40-10 17 0 31 5 42 14 10 9 17 20 20 33 5 19 17 27 35 26 11-1 19-4 25-11s8-16 5-27c-8-37-23-66-45-86-23-21-51-31-84-31-19 0-36 3-52 10-17 7-32 14-47 23s-29 16-42 23c-14 7-28 10-41 10-17 0-30-4-41-13s-18-21-21-34c-5-19-17-27-35-26z"/><glyph unicode="Æ" horiz-adv-x="993" d="M54-8C25-8 8 0 1 17s-5 35 8 55l371 598c14 23 35 35 64 35h452c35 0 53-17 53-50 0-35-18-52-53-52H540l42-194h293c35 0 53-17 53-51s-18-51-53-51H605l44-205h247c35 0 53-17 53-51S931 0 896 0H604c-31 0-51 16-58 47l-25 116H197L119 32c-8-13-17-22-26-29C83-4 70-8 54-8m379 570L256 265h243l-64 297z"/><glyph unicode="Ǽ" horiz-adv-x="993" d="M54-8C25-8 8 0 1 17s-5 35 8 55l371 598c14 23 35 35 64 35h452c35 0 53-17 53-50 0-35-18-52-53-52H540l42-194h293c35 0 53-17 53-51s-18-51-53-51H605l44-205h247c35 0 53-17 53-51S931 0 896 0H604c-31 0-51 16-58 47l-25 116H197L119 32c-8-13-17-22-26-29C83-4 70-8 54-8m379 570L256 265h243l-64 297m104 209c-8-9-17-13-26-13-10-1-19 2-26 8-8 5-13 12-15 21-3 9-1 18 5 27l78 115c9 14 21 21 34 22s26-3 37-10c11-8 18-18 21-29 3-12-1-24-12-36z"/><glyph unicode="B" horiz-adv-x="688" d="M145 0c-45 0-68 23-68 68v569c0 45 23 68 68 68h240c74 0 131-16 172-48 41-33 61-78 61-135 0-38-10-71-29-98s-46-47-80-60c40-11 71-31 94-59 22-29 33-65 33-108 0-63-21-111-63-145C530 17 471 0 396 0M200 406h163c87 0 131 34 131 101s-44 101-131 101H200m0-511h180c88 0 132 35 132 106s-44 106-132 106H200z"/><glyph unicode="Ɓ" horiz-adv-x="838" d="M295 0c-45 0-68 23-68 68v546h-26c-64 0-96-31-96-92v-16c0-11-4-21-12-31-9-10-22-15-40-15s-31 5-40 16-13 22-13 33v18c0 57 18 101 53 132s86 46 155 46h327c74 0 131-16 172-48 41-33 61-78 61-135 0-38-10-71-29-98s-46-47-80-60c40-11 71-31 94-59 22-29 33-65 33-108 0-63-21-111-63-145C680 17 621 0 546 0M350 406h163c87 0 131 34 131 101s-44 101-131 101H350m0-511h180c88 0 132 35 132 106s-44 106-132 106H350z"/><glyph unicode="C" horiz-adv-x="680" d="M405-10c-73 0-136 15-188 45-53 29-93 71-121 126-28 54-42 118-42 192s14 138 42 192 68 96 121 126c52 29 115 44 188 44 37 0 73-5 108-14s66-23 93-40c17-11 28-25 31-40 3-16 1-30-6-43s-18-22-33-26c-15-5-31-1-49 11-21 13-43 23-67 29s-48 9-73 9c-71 0-126-21-163-64s-56-105-56-184 19-141 56-184 92-65 163-65c25 0 50 3 75 10 25 6 48 16 70 29 18 11 34 15 48 11s25-12 32-24c7-13 9-26 6-41s-12-28-27-39c-27-19-58-34-95-44-37-11-75-16-113-16z"/><glyph unicode="Ć" horiz-adv-x="680" d="M405-10c-73 0-136 15-188 45-53 29-93 71-121 126-28 54-42 118-42 192s14 138 42 192 68 96 121 126c52 29 115 44 188 44 37 0 73-5 108-14s66-23 93-40c17-11 28-25 31-40 3-16 1-30-6-43s-18-22-33-26c-15-5-31-1-49 11-21 13-43 23-67 29s-48 9-73 9c-71 0-126-21-163-64s-56-105-56-184 19-141 56-184 92-65 163-65c25 0 50 3 75 10 25 6 48 16 70 29 18 11 34 15 48 11s25-12 32-24c7-13 9-26 6-41s-12-28-27-39c-27-19-58-34-95-44-37-11-75-16-113-16m38 781c-8-9-17-13-26-13-10-1-19 2-26 8-8 5-13 12-15 21-3 9-1 18 5 27l78 115c9 14 21 21 34 22s26-3 37-10c11-8 18-18 21-29 3-12-1-24-12-36z"/><glyph unicode="Č" horiz-adv-x="680" d="M405-10c-73 0-136 15-188 45-53 29-93 71-121 126-28 54-42 118-42 192s14 138 42 192 68 96 121 126c52 29 115 44 188 44 37 0 73-5 108-14s66-23 93-40c17-11 28-25 31-40 3-16 1-30-6-43s-18-22-33-26c-15-5-31-1-49 11-21 13-43 23-67 29s-48 9-73 9c-71 0-126-21-163-64s-56-105-56-184 19-141 56-184 92-65 163-65c25 0 50 3 75 10 25 6 48 16 70 29 18 11 34 15 48 11s25-12 32-24c7-13 9-26 6-41s-12-28-27-39c-27-19-58-34-95-44-37-11-75-16-113-16m-13 764c-31 0-55 13-73 39l-73 102c-7 9-9 18-6 27 2 9 7 16 15 21s17 7 27 6c9-1 18-7 26-16l84-98 85 98c11 13 23 18 36 16s22-8 29-18c7-11 5-23-4-36l-72-102c-18-26-43-39-74-39z"/><glyph unicode="Ç" horiz-adv-x="680" d="M405-10c-73 0-136 15-188 45-53 29-93 71-121 126-28 54-42 118-42 192s14 138 42 192 68 96 121 126c52 29 115 44 188 44 37 0 73-5 108-14s66-23 93-40c17-11 28-25 31-40 3-16 1-30-6-43s-18-22-33-26c-15-5-31-1-49 11-21 13-43 23-67 29s-48 9-73 9c-71 0-126-21-163-64s-56-105-56-184 19-141 56-184 92-65 163-65c25 0 50 3 75 10 25 6 48 16 70 29 18 11 34 15 48 11s25-12 32-24c7-13 9-26 6-41s-12-28-27-39c-27-19-58-34-95-44-37-11-75-16-113-16m-13-185c-13 0-26 1-40 3-14 1-27 4-38 8-13 5-21 13-23 24s1 21 9 29c7 8 18 9 31 4 15-5 32-8 51-8 36 0 54 10 54 30 0 15-12 23-37 23h-14c-5-1-11-2-16-3-9-3-17-2-23 3-5 5-7 13-5 26l11 76h67l-10-58c4 1 8 1 11 1 27 0 49-6 66-19s25-30 25-53c0-26-11-47-33-62-22-16-51-24-86-24z"/><glyph unicode="Ḉ" horiz-adv-x="680" d="M405-10c-73 0-136 15-188 45-53 29-93 71-121 126-28 54-42 118-42 192s14 138 42 192 68 96 121 126c52 29 115 44 188 44 37 0 73-5 108-14s66-23 93-40c17-11 28-25 31-40 3-16 1-30-6-43s-18-22-33-26c-15-5-31-1-49 11-21 13-43 23-67 29s-48 9-73 9c-71 0-126-21-163-64s-56-105-56-184 19-141 56-184 92-65 163-65c25 0 50 3 75 10 25 6 48 16 70 29 18 11 34 15 48 11s25-12 32-24c7-13 9-26 6-41s-12-28-27-39c-27-19-58-34-95-44-37-11-75-16-113-16m-13-185c-13 0-26 1-40 3-14 1-27 4-38 8-13 5-21 13-23 24s1 21 9 29c7 8 18 9 31 4 15-5 32-8 51-8 36 0 54 10 54 30 0 15-12 23-37 23h-14c-5-1-11-2-16-3-9-3-17-2-23 3-5 5-7 13-5 26l11 76h67l-10-58c4 1 8 1 11 1 27 0 49-6 66-19s25-30 25-53c0-26-11-47-33-62-22-16-51-24-86-24m51 966c-8-9-17-13-26-13-10-1-19 2-26 8-8 5-13 12-15 21-3 9-1 18 5 27l78 115c9 14 21 21 34 22s26-3 37-10c11-8 18-18 21-29 3-12-1-24-12-36z"/><glyph unicode="Ĉ" horiz-adv-x="680" d="M405-10c-73 0-136 15-188 45-53 29-93 71-121 126-28 54-42 118-42 192s14 138 42 192 68 96 121 126c52 29 115 44 188 44 37 0 73-5 108-14s66-23 93-40c17-11 28-25 31-40 3-16 1-30-6-43s-18-22-33-26c-15-5-31-1-49 11-21 13-43 23-67 29s-48 9-73 9c-71 0-126-21-163-64s-56-105-56-184 19-141 56-184 92-65 163-65c25 0 50 3 75 10 25 6 48 16 70 29 18 11 34 15 48 11s25-12 32-24c7-13 9-26 6-41s-12-28-27-39c-27-19-58-34-95-44-37-11-75-16-113-16m-97 781c-11-11-23-16-36-14s-23 8-29 19c-7 10-6 21 3 34l73 101c18 27 42 40 73 40 30 0 55-13 74-40l72-101c9-13 11-24 5-34-7-11-16-17-29-19s-26 3-37 14l-85 98z"/><glyph unicode="Ċ" horiz-adv-x="680" d="M405-10c-73 0-136 15-188 45-53 29-93 71-121 126-28 54-42 118-42 192s14 138 42 192 68 96 121 126c52 29 115 44 188 44 37 0 73-5 108-14s66-23 93-40c17-11 28-25 31-40 3-16 1-30-6-43s-18-22-33-26c-15-5-31-1-49 11-21 13-43 23-67 29s-48 9-73 9c-71 0-126-21-163-64s-56-105-56-184 19-141 56-184 92-65 163-65c25 0 50 3 75 10 25 6 48 16 70 29 18 11 34 15 48 11s25-12 32-24c7-13 9-26 6-41s-12-28-27-39c-27-19-58-34-95-44-37-11-75-16-113-16m-13 799c-43 0-65 21-65 63 0 41 22 62 65 62s65-21 65-62c0-42-22-63-65-63z"/><glyph unicode="D" horiz-adv-x="762" d="M145 0c-45 0-68 23-68 68v569c0 45 23 68 68 68h194c118 0 209-30 274-91 64-61 96-148 96-261s-32-200-96-261C548 31 457 0 339 0M205 106h126c163 0 244 82 244 247 0 164-81 246-244 246H205z"/><glyph unicode="Ǆ" horiz-adv-x="1352" d="M892 0c-45 0-68 23-68 68v569c0 45 23 68 68 68h194c118 0 209-30 274-91 64-61 96-148 96-261s-32-200-96-261c-65-61-156-92-274-92M952 106h126c163 0 244 82 244 247 0 164-81 246-244 246H952M853 0c-22 0-38 6-49 18-11 11-16 26-14 45 1 19 9 38 24 58l352 477H843c-38 0-57 18-57 54 0 35 19 53 57 53h414c22 0 39-6 50-17 11-12 15-27 14-45-1-19-10-38-25-59L944 107h338c38 0 57-18 57-53 0-36-19-54-57-54m-222 754c-31 0-55 13-73 39l-73 102c-7 9-9 18-6 27 2 9 7 16 15 21s17 7 27 6c9-1 18-7 26-16l84-98 85 98c11 13 23 18 36 16s22-8 29-18c7-11 5-23-4-36l-72-102c-18-26-43-39-74-39z"/><glyph unicode="Ð" horiz-adv-x="762" d="M145 0c-45 0-68 23-68 68v569c0 45 23 68 68 68h194c118 0 209-30 274-91 64-61 96-148 96-261s-32-200-96-261C548 31 457 0 339 0M205 106h126c163 0 244 82 244 247 0 164-81 246-244 246H205M32 310c-33 0-49 16-49 47s16 47 49 47h323c33 0 49-16 49-47s-16-47-49-47z"/><glyph unicode="Ď" horiz-adv-x="762" d="M145 0c-45 0-68 23-68 68v569c0 45 23 68 68 68h194c118 0 209-30 274-91 64-61 96-148 96-261s-32-200-96-261C548 31 457 0 339 0M205 106h126c163 0 244 82 244 247 0 164-81 246-244 246H205m174 155c-31 0-55 13-73 39l-73 102c-7 9-9 18-6 27 2 9 7 16 15 21s17 7 27 6c9-1 18-7 26-16l84-98 85 98c11 13 23 18 36 16s22-8 29-18c7-11 5-23-4-36l-72-102c-18-26-43-39-74-39z"/><glyph unicode="Đ" horiz-adv-x="762" d="M145 0c-45 0-68 23-68 68v569c0 45 23 68 68 68h194c118 0 209-30 274-91 64-61 96-148 96-261s-32-200-96-261C548 31 457 0 339 0M205 106h126c163 0 244 82 244 247 0 164-81 246-244 246H205M32 310c-33 0-49 16-49 47s16 47 49 47h323c33 0 49-16 49-47s-16-47-49-47z"/><glyph unicode="Ḍ" horiz-adv-x="762" d="M145 0c-45 0-68 23-68 68v569c0 45 23 68 68 68h194c118 0 209-30 274-91 64-61 96-148 96-261s-32-200-96-261C548 31 457 0 339 0M205 106h126c163 0 244 82 244 247 0 164-81 246-244 246H205m174-808c-43 0-65 21-65 63 0 41 22 62 65 62 44 0 66-21 66-62 0-42-22-63-66-63z"/><glyph unicode="Ɗ" horiz-adv-x="913" d="M295 0c-45 0-68 23-68 68v546h-26c-64 0-96-31-96-92v-16c0-11-4-21-12-31-9-10-22-15-40-15s-31 5-40 16-13 22-13 33v18c0 57 17 101 52 132 34 31 84 46 151 46h286c118 0 209-30 274-91 64-61 96-148 96-261s-32-200-96-261C698 31 607 0 489 0M355 106h126c163 0 244 82 244 247 0 164-81 246-244 246H355z"/><glyph unicode="Ḏ" horiz-adv-x="762" d="M145 0c-45 0-68 23-68 68v569c0 45 23 68 68 68h194c118 0 209-30 274-91 64-61 96-148 96-261s-32-200-96-261C548 31 457 0 339 0M205 106h126c163 0 244 82 244 247 0 164-81 246-244 246H205m51-764c-26 0-39 12-39 37s13 37 39 37h247c26 0 39-12 39-37s-13-37-39-37z"/><glyph unicode="ǅ" horiz-adv-x="1236" d="M907 0c-45 0-68 23-68 68v569c0 45 23 68 68 68h194c118 0 209-30 274-91 64-61 96-148 96-261s-32-200-96-261c-65-61-156-92-274-92M967 106h126c163 0 244 82 244 247 0 164-81 246-244 246H967M857 0c-17 0-30 6-39 17s-12 24-11 39 8 30 21 44l235 295H851c-32 0-48 16-48 47s16 47 48 47h296c20 0 35-5 45-16 9-11 14-23 13-38s-8-30-21-44L946 94h224c32 0 48-16 48-47s-16-47-48-47m-165 536c-30 0-53 16-70 47l-72 131c-6 11-7 20-4 29s9 15 17 20c8 4 17 5 26 4s16-7 22-16l81-126 81 126c6 9 14 15 23 16s17 0 25-4c8-5 14-11 17-20s2-18-4-29l-71-131c-17-31-40-47-71-47z"/><glyph unicode="E" horiz-adv-x="597" d="M145 0c-45 0-68 23-68 68v569c0 45 23 68 68 68h357c35 0 52-17 52-50 0-35-17-52-52-52H200V409h280c35 0 52-17 52-51s-17-51-52-51H200V102h302c35 0 52-17 52-51S537 0 502 0z"/><glyph unicode="É" horiz-adv-x="597" d="M145 0c-45 0-68 23-68 68v569c0 45 23 68 68 68h357c35 0 52-17 52-50 0-35-17-52-52-52H200V409h280c35 0 52-17 52-51s-17-51-52-51H200V102h302c35 0 52-17 52-51S537 0 502 0M379 771c-8-9-17-13-26-13-10-1-19 2-26 8-8 5-13 12-15 21-3 9-1 18 5 27l78 115c9 14 21 21 34 22s26-3 37-10c11-8 18-18 21-29 3-12-1-24-12-36z"/><glyph unicode="Ĕ" horiz-adv-x="597" d="M145 0c-45 0-68 23-68 68v569c0 45 23 68 68 68h357c35 0 52-17 52-50 0-35-17-52-52-52H200V409h280c35 0 52-17 52-51s-17-51-52-51H200V102h302c35 0 52-17 52-51S537 0 502 0M328 760c-43 0-81 12-112 35-32 23-54 55-65 98-3 13-2 24 5 33 6 9 14 13 23 14 14 1 24-1 31-7 7-7 11-14 13-22 7-27 20-47 41-58 20-12 41-18 64-18s45 6 65 18c20 11 33 31 40 58 2 8 6 15 13 22 7 6 17 8 31 7 9-1 17-5 24-14 6-9 7-20 4-33-11-43-32-75-64-98s-70-35-113-35z"/><glyph unicode="Ě" horiz-adv-x="597" d="M145 0c-45 0-68 23-68 68v569c0 45 23 68 68 68h357c35 0 52-17 52-50 0-35-17-52-52-52H200V409h280c35 0 52-17 52-51s-17-51-52-51H200V102h302c35 0 52-17 52-51S537 0 502 0M328 754c-31 0-55 13-73 39l-73 102c-7 9-9 18-6 27 2 9 7 16 15 21s17 7 27 6c9-1 18-7 26-16l84-98 85 98c11 13 23 18 36 16s22-8 29-18c7-11 5-23-4-36l-72-102c-18-26-43-39-74-39z"/><glyph unicode="Ȩ" horiz-adv-x="597" d="M145 0c-45 0-68 23-68 68v569c0 45 23 68 68 68h357c35 0 52-17 52-50 0-35-17-52-52-52H200V409h280c35 0 52-17 52-51s-17-51-52-51H200V102h302c35 0 52-17 52-51S537 0 502 0M329-195c-13 0-26 1-40 3-14 1-27 4-38 8-13 5-21 13-23 24s1 21 9 29c7 8 18 9 31 4 15-5 32-8 51-8 36 0 54 10 54 30 0 15-12 23-37 23h-14c-5-1-11-2-16-3-9-3-17-2-23 3-5 5-7 13-5 26l11 76h67l-10-58c4 1 8 1 11 1 27 0 49-6 66-19s25-30 25-53c0-26-11-47-33-62-22-16-51-24-86-24z"/><glyph unicode="Ḝ" horiz-adv-x="597" d="M145 0c-45 0-68 23-68 68v569c0 45 23 68 68 68h357c35 0 52-17 52-50 0-35-17-52-52-52H200V409h280c35 0 52-17 52-51s-17-51-52-51H200V102h302c35 0 52-17 52-51S537 0 502 0M329-195c-13 0-26 1-40 3-14 1-27 4-38 8-13 5-21 13-23 24s1 21 9 29c7 8 18 9 31 4 15-5 32-8 51-8 36 0 54 10 54 30 0 15-12 23-37 23h-14c-5-1-11-2-16-3-9-3-17-2-23 3-5 5-7 13-5 26l11 76h67l-10-58c4 1 8 1 11 1 27 0 49-6 66-19s25-30 25-53c0-26-11-47-33-62-22-16-51-24-86-24m-1 955c-43 0-81 12-112 35-32 23-54 55-65 98-3 13-2 24 5 33 6 9 14 13 23 14 14 1 24-1 31-7 7-7 11-14 13-22 7-27 20-47 41-58 20-12 41-18 64-18s45 6 65 18c20 11 33 31 40 58 2 8 6 15 13 22 7 6 17 8 31 7 9-1 17-5 24-14 6-9 7-20 4-33-11-43-32-75-64-98s-70-35-113-35z"/><glyph unicode="Ê" horiz-adv-x="597" d="M145 0c-45 0-68 23-68 68v569c0 45 23 68 68 68h357c35 0 52-17 52-50 0-35-17-52-52-52H200V409h280c35 0 52-17 52-51s-17-51-52-51H200V102h302c35 0 52-17 52-51S537 0 502 0M244 771c-11-11-23-16-36-14s-23 8-29 19c-7 10-6 21 3 34l73 101c18 27 42 40 73 40 30 0 55-13 74-40l72-101c9-13 11-24 5-34-7-11-16-17-29-19s-26 3-37 14l-85 98z"/><glyph unicode="Ế" horiz-adv-x="597" d="M145 0c-45 0-68 23-68 68v569c0 45 23 68 68 68h357c35 0 52-17 52-50 0-35-17-52-52-52H200V409h280c35 0 52-17 52-51s-17-51-52-51H200V102h302c35 0 52-17 52-51S537 0 502 0m1 865c-8-10-17-14-28-13s-19 6-24 15c-6 9-5 20 2 33l62 110c7 13 17 21 28 23 11 1 22-1 32-6 9-6 16-14 19-25s-1-22-10-34M247 769c-11-12-22-17-34-15-12 1-21 7-26 18-6 10-5 21 4 34l65 97c10 15 21 25 33 31 11 5 24 8 39 8s29-3 41-8c11-6 22-16 31-31l65-97c9-13 10-24 5-34-5-11-14-17-25-18-12-2-24 3-35 15l-82 91z"/><glyph unicode="Ệ" horiz-adv-x="597" d="M145 0c-45 0-68 23-68 68v569c0 45 23 68 68 68h357c35 0 52-17 52-50 0-35-17-52-52-52H200V409h280c35 0 52-17 52-51s-17-51-52-51H200V102h302c35 0 52-17 52-51S537 0 502 0M328-209c-43 0-65 21-65 63 0 41 22 62 65 62 44 0 66-21 66-62 0-42-22-63-66-63m-84 980c-11-11-23-16-36-14s-23 8-29 19c-7 10-6 21 3 34l73 101c18 27 42 40 73 40 30 0 55-13 74-40l72-101c9-13 11-24 5-34-7-11-16-17-29-19s-26 3-37 14l-85 98z"/><glyph unicode="Ề" horiz-adv-x="597" d="M145 0c-45 0-68 23-68 68v569c0 45 23 68 68 68h357c35 0 52-17 52-50 0-35-17-52-52-52H200V409h280c35 0 52-17 52-51s-17-51-52-51H200V102h302c35 0 52-17 52-51S537 0 502 0m-20 865l-81 103c-9 12-12 23-9 34s9 19 19 25c9 5 20 7 31 6 11-2 21-10 28-23l62-110c7-13 8-24 3-33-6-9-14-14-25-15s-20 3-28 13m-235-96c-11-12-22-17-34-15-12 1-21 7-26 18-6 10-5 21 4 34l65 97c10 15 21 25 33 31 11 5 24 8 39 8s29-3 41-8c11-6 22-16 31-31l65-97c9-13 10-24 5-34-5-11-14-17-25-18-12-2-24 3-35 15l-82 91z"/><glyph unicode="Ể" horiz-adv-x="597" d="M145 0c-45 0-68 23-68 68v569c0 45 23 68 68 68h357c35 0 52-17 52-50 0-35-17-52-52-52H200V409h280c35 0 52-17 52-51s-17-51-52-51H200V102h302c35 0 52-17 52-51S537 0 502 0m-13 865c-9-5-17-5-26-2s-14 8-16 15c-3 7 0 14 8 21 11 9 19 17 26 24 6 7 9 15 9 24 0 16-12 24-37 24-5 0-10 0-15-1l-18-3c-19-5-31 0-36 15-5 17 2 28 21 34 11 3 23 6 36 7 12 1 25 2 38 2 29 0 52-5 69-14 16-9 24-24 24-45 0-13-4-26-13-39s-19-25-32-35c-13-11-25-20-38-27m-242-96c-11-12-22-17-34-15-12 1-21 7-26 18-6 10-5 21 4 34l65 97c10 15 21 25 33 31 11 5 24 8 39 8s29-3 41-8c11-6 22-16 31-31l65-97c9-13 10-24 5-34-5-11-14-17-25-18-12-2-24 3-35 15l-82 91z"/><glyph unicode="Ễ" horiz-adv-x="597" d="M145 0c-45 0-68 23-68 68v569c0 45 23 68 68 68h357c35 0 52-17 52-50 0-35-17-52-52-52H200V409h280c35 0 52-17 52-51s-17-51-52-51H200V102h302c35 0 52-17 52-51S537 0 502 0M187 922c-9 1-16 4-21 11s-7 15-4 26c7 25 19 43 37 56 17 13 38 19 63 19 18 0 34-4 49-11s29-15 42-22 25-11 38-11c10 0 19 2 27 6 8 3 14 9 17 18 6 15 18 23 35 22 9-1 17-4 22-10 5-7 6-16 3-27-7-25-19-43-36-56-18-13-39-19-64-19-18 0-34 4-49 11s-29 15-42 22-25 11-38 11c-10 0-19-2-27-5-8-4-14-10-17-19-6-15-18-23-35-22m51-159c-11-9-21-11-31-8-11 3-18 9-21 18-4 9-2 18 6 27l59 70c11 13 23 23 36 28s26 7 41 7 30-2 43-7 24-15 35-28l58-70c8-9 10-19 7-28-4-9-11-15-21-18s-21 0-32 9l-90 74z"/><glyph unicode="Ȅ" horiz-adv-x="597" d="M145 0c-45 0-68 23-68 68v569c0 45 23 68 68 68h357c35 0 52-17 52-50 0-35-17-52-52-52H200V409h280c35 0 52-17 52-51s-17-51-52-51H200V102h302c35 0 52-17 52-51S537 0 502 0M216 770l-87 112c-10 13-13 26-10 37s10 19 21 26c10 6 21 8 34 6 12-3 22-11 29-25l65-121c7-12 7-23 1-32s-14-15-24-16c-11-2-20 2-29 13m144 3l-79 109c-10 13-13 26-9 37s12 20 23 26c11 5 22 7 35 5 12-3 21-11 28-25l61-122c6-12 6-22-1-31s-16-14-27-15c-12-1-22 4-31 16z"/><glyph unicode="Ë" horiz-adv-x="597" d="M145 0c-45 0-68 23-68 68v569c0 45 23 68 68 68h357c35 0 52-17 52-50 0-35-17-52-52-52H200V409h280c35 0 52-17 52-51s-17-51-52-51H200V102h302c35 0 52-17 52-51S537 0 502 0m-79 786c-41 0-62 21-62 62s21 61 62 61 61-20 61-61-20-62-61-62m-189 0c-19 0-34 5-45 16s-17 26-17 46c0 19 6 34 17 45s26 16 45 16c41 0 62-20 62-61s-21-62-62-62z"/><glyph unicode="Ė" horiz-adv-x="597" d="M145 0c-45 0-68 23-68 68v569c0 45 23 68 68 68h357c35 0 52-17 52-50 0-35-17-52-52-52H200V409h280c35 0 52-17 52-51s-17-51-52-51H200V102h302c35 0 52-17 52-51S537 0 502 0M328 789c-43 0-65 21-65 63 0 41 22 62 65 62s65-21 65-62c0-42-22-63-65-63z"/><glyph unicode="Ẹ" horiz-adv-x="597" d="M145 0c-45 0-68 23-68 68v569c0 45 23 68 68 68h357c35 0 52-17 52-50 0-35-17-52-52-52H200V409h280c35 0 52-17 52-51s-17-51-52-51H200V102h302c35 0 52-17 52-51S537 0 502 0M328-209c-43 0-65 21-65 63 0 41 22 62 65 62 44 0 66-21 66-62 0-42-22-63-66-63z"/><glyph unicode="È" horiz-adv-x="597" d="M145 0c-45 0-68 23-68 68v569c0 45 23 68 68 68h357c35 0 52-17 52-50 0-35-17-52-52-52H200V409h280c35 0 52-17 52-51s-17-51-52-51H200V102h302c35 0 52-17 52-51S537 0 502 0M278 771l-96 105c-11 12-14 24-11 36 3 11 10 21 21 29 11 7 23 11 36 10s25-8 34-22l78-115c6-9 8-18 6-27-3-9-8-16-15-21-8-6-17-9-26-8-10 0-19 4-27 13z"/><glyph unicode="Ẻ" horiz-adv-x="597" d="M145 0c-45 0-68 23-68 68v569c0 45 23 68 68 68h357c35 0 52-17 52-50 0-35-17-52-52-52H200V409h280c35 0 52-17 52-51s-17-51-52-51H200V102h302c35 0 52-17 52-51S537 0 502 0M328 757c-25 0-38 9-38 26 0 16 5 28 14 37 9 8 19 15 28 22s14 14 14 23c0 13-13 20-40 20-5 0-10 0-16-1-7-1-13-2-19-3-23-5-37 0-42 15-3 8-2 16 1 23s9 12 20 15c11 4 25 7 40 9s30 3 46 3c33 0 58-6 77-17s28-27 28-46c0-15-4-26-11-35s-16-16-26-22c-10-7-19-13-26-20s-11-17-11-29c0-13-13-20-39-20z"/><glyph unicode="Ȇ" horiz-adv-x="597" d="M145 0c-45 0-68 23-68 68v569c0 45 23 68 68 68h357c35 0 52-17 52-50 0-35-17-52-52-52H200V409h280c35 0 52-17 52-51s-17-51-52-51H200V102h302c35 0 52-17 52-51S537 0 502 0M179 760c-9 1-17 6-23 15-7 8-8 19-5 32 11 43 33 76 65 99 31 22 69 33 112 33s81-11 113-33c32-23 53-56 64-99 3-13 2-24-4-32-7-9-15-14-24-15-14-1-24 1-31 8-7 6-11 13-13 21-7 27-20 47-40 59-20 11-42 17-65 17s-44-6-64-17c-20-12-34-32-41-59-2-8-6-15-13-21-7-7-17-9-31-8z"/><glyph unicode="Ē" horiz-adv-x="597" d="M145 0c-45 0-68 23-68 68v569c0 45 23 68 68 68h357c35 0 52-17 52-50 0-35-17-52-52-52H200V409h280c35 0 52-17 52-51s-17-51-52-51H200V102h302c35 0 52-17 52-51S537 0 502 0M190 806c-26 0-39 12-39 37s13 37 39 37h277c26 0 39-12 39-37s-13-37-39-37z"/><glyph unicode="Ḗ" horiz-adv-x="597" d="M145 0c-45 0-68 23-68 68v569c0 45 23 68 68 68h357c35 0 52-17 52-50 0-35-17-52-52-52H200V409h280c35 0 52-17 52-51s-17-51-52-51H200V102h302c35 0 52-17 52-51S537 0 502 0M367 893c-9-11-20-15-32-13-12 1-21 7-27 17-6 9-6 20 1 33l49 89c8 14 19 22 32 25 13 2 25 0 36-6 11-7 18-16 22-27 3-11 0-23-11-36M208 783c-28 0-42 12-42 37s14 37 42 37h240c28 0 42-12 42-37s-14-37-42-37z"/><glyph unicode="Ḕ" horiz-adv-x="597" d="M145 0c-45 0-68 23-68 68v569c0 45 23 68 68 68h357c35 0 52-17 52-50 0-35-17-52-52-52H200V409h280c35 0 52-17 52-51s-17-51-52-51H200V102h302c35 0 52-17 52-51S537 0 502 0M289 893l-70 82c-11 13-14 25-10 36 3 11 11 20 22 27 11 6 23 8 36 6 13-3 23-11 31-25l49-89c7-13 8-24 2-33-7-10-16-16-27-17-12-2-23 2-33 13m-81-110c-28 0-42 12-42 37s14 37 42 37h240c28 0 42-12 42-37s-14-37-42-37z"/><glyph unicode="Ę" horiz-adv-x="597" d="M145 0c-45 0-68 23-68 68v569c0 45 23 68 68 68h357c35 0 52-17 52-50 0-35-17-52-52-52H200V409h280c35 0 52-17 52-51s-17-51-52-51H200V102h302c35 0 52-17 52-51S537 0 502 0m-25-195c-37 0-65 9-86 28s-32 44-32 76c0 28 9 54 28 78s43 42 74 55l37-42c-17-7-31-17-42-30-12-14-18-30-18-47s5-29 16-38 24-13 40-13c10 0 20 1 30 4 16 5 27 3 34-6s9-19 6-30c-3-12-11-21-24-26-11-4-21-6-32-7s-22-2-31-2z"/><glyph unicode="Ẽ" horiz-adv-x="597" d="M145 0c-45 0-68 23-68 68v569c0 45 23 68 68 68h357c35 0 52-17 52-50 0-35-17-52-52-52H200V409h280c35 0 52-17 52-51s-17-51-52-51H200V102h302c35 0 52-17 52-51S537 0 502 0M139 769c-11 1-19 4-25 11s-8 16-5 27c8 37 24 66 47 87 23 20 50 30 83 30 19 0 36-3 52-10s31-14 46-23 29-16 43-23c13-7 27-10 40-10 17 0 31 5 42 14 10 9 17 20 20 33 5 19 17 27 35 26 11-1 19-4 25-11s8-16 5-27c-8-37-23-66-45-86-23-21-51-31-84-31-19 0-36 3-52 10-17 7-32 14-47 23s-29 16-42 23c-14 7-28 10-41 10-17 0-30-4-41-13s-18-21-21-34c-5-19-17-27-35-26z"/><glyph unicode="F" horiz-adv-x="562" d="M143-8C99-8 77 15 77 60v577c0 45 23 68 68 68h349c35 0 52-17 52-50 0-35-17-52-52-52H205V404h268c35 0 52-17 52-50 0-35-17-52-52-52H205V60c0-45-21-68-62-68z"/><glyph unicode="G" horiz-adv-x="736" d="M416-10c-78 0-144 15-197 44-54 29-95 71-123 125S54 277 54 351c0 75 14 139 43 194 29 54 70 96 124 126 54 29 119 44 194 44 37 0 75-4 113-13 37-9 73-25 106-46 15-9 23-20 26-34 2-15 0-28-7-41s-17-21-30-26-28-3-44 6c-25 15-51 25-77 32s-55 10-87 10c-75 0-131-22-169-65-39-43-58-106-58-187 0-82 20-144 59-187s98-64 175-64c22 0 45 2 68 6 23 3 45 9 68 16v164H448c-35 0-52 16-52 48 0 31 17 47 52 47h165c35 0 52-17 52-52V86c0-31-12-50-36-59-29-11-63-19-101-26s-75-11-112-11z"/><glyph unicode="Ğ" horiz-adv-x="736" d="M416-10c-78 0-144 15-197 44-54 29-95 71-123 125S54 277 54 351c0 75 14 139 43 194 29 54 70 96 124 126 54 29 119 44 194 44 37 0 75-4 113-13 37-9 73-25 106-46 15-9 23-20 26-34 2-15 0-28-7-41s-17-21-30-26-28-3-44 6c-25 15-51 25-77 32s-55 10-87 10c-75 0-131-22-169-65-39-43-58-106-58-187 0-82 20-144 59-187s98-64 175-64c22 0 45 2 68 6 23 3 45 9 68 16v164H448c-35 0-52 16-52 48 0 31 17 47 52 47h165c35 0 52-17 52-52V86c0-31-12-50-36-59-29-11-63-19-101-26s-75-11-112-11m-15 770c-43 0-81 12-112 35-32 23-54 55-65 98-3 13-2 24 5 33 6 9 14 13 23 14 14 1 24-1 31-7 7-7 11-14 13-22 7-27 20-47 41-58 20-12 41-18 64-18s45 6 65 18c20 11 33 31 40 58 2 8 6 15 13 22 7 6 17 8 31 7 9-1 17-5 24-14 6-9 7-20 4-33-11-43-32-75-64-98s-70-35-113-35z"/><glyph unicode="Ǧ" horiz-adv-x="736" d="M416-10c-78 0-144 15-197 44-54 29-95 71-123 125S54 277 54 351c0 75 14 139 43 194 29 54 70 96 124 126 54 29 119 44 194 44 37 0 75-4 113-13 37-9 73-25 106-46 15-9 23-20 26-34 2-15 0-28-7-41s-17-21-30-26-28-3-44 6c-25 15-51 25-77 32s-55 10-87 10c-75 0-131-22-169-65-39-43-58-106-58-187 0-82 20-144 59-187s98-64 175-64c22 0 45 2 68 6 23 3 45 9 68 16v164H448c-35 0-52 16-52 48 0 31 17 47 52 47h165c35 0 52-17 52-52V86c0-31-12-50-36-59-29-11-63-19-101-26s-75-11-112-11m-15 764c-31 0-55 13-73 39l-73 102c-7 9-9 18-6 27 2 9 7 16 15 21s17 7 27 6c9-1 18-7 26-16l84-98 85 98c11 13 23 18 36 16s22-8 29-18c7-11 5-23-4-36l-72-102c-18-26-43-39-74-39z"/><glyph unicode="Ĝ" horiz-adv-x="736" d="M416-10c-78 0-144 15-197 44-54 29-95 71-123 125S54 277 54 351c0 75 14 139 43 194 29 54 70 96 124 126 54 29 119 44 194 44 37 0 75-4 113-13 37-9 73-25 106-46 15-9 23-20 26-34 2-15 0-28-7-41s-17-21-30-26-28-3-44 6c-25 15-51 25-77 32s-55 10-87 10c-75 0-131-22-169-65-39-43-58-106-58-187 0-82 20-144 59-187s98-64 175-64c22 0 45 2 68 6 23 3 45 9 68 16v164H448c-35 0-52 16-52 48 0 31 17 47 52 47h165c35 0 52-17 52-52V86c0-31-12-50-36-59-29-11-63-19-101-26s-75-11-112-11m-99 781c-11-11-23-16-36-14s-23 8-29 19c-7 10-6 21 3 34l73 101c18 27 42 40 73 40 30 0 55-13 74-40l72-101c9-13 11-24 5-34-7-11-16-17-29-19s-26 3-37 14l-85 98z"/><glyph unicode="Ģ" horiz-adv-x="736" d="M416-10c-78 0-144 15-197 44-54 29-95 71-123 125S54 277 54 351c0 75 14 139 43 194 29 54 70 96 124 126 54 29 119 44 194 44 37 0 75-4 113-13 37-9 73-25 106-46 15-9 23-20 26-34 2-15 0-28-7-41s-17-21-30-26-28-3-44 6c-25 15-51 25-77 32s-55 10-87 10c-75 0-131-22-169-65-39-43-58-106-58-187 0-82 20-144 59-187s98-64 175-64c22 0 45 2 68 6 23 3 45 9 68 16v164H448c-35 0-52 16-52 48 0 31 17 47 52 47h165c35 0 52-17 52-52V86c0-31-12-50-36-59-29-11-63-19-101-26s-75-11-112-11m18-250c-9-11-18-15-29-14s-19 7-24 16-3 20 6 33c8 12 14 26 17 41-43 2-64 22-64 59 0 39 22 58 67 58s68-23 68-69c0-21-3-42-10-64-7-23-17-43-31-60z"/><glyph unicode="Ġ" horiz-adv-x="736" d="M416-10c-78 0-144 15-197 44-54 29-95 71-123 125S54 277 54 351c0 75 14 139 43 194 29 54 70 96 124 126 54 29 119 44 194 44 37 0 75-4 113-13 37-9 73-25 106-46 15-9 23-20 26-34 2-15 0-28-7-41s-17-21-30-26-28-3-44 6c-25 15-51 25-77 32s-55 10-87 10c-75 0-131-22-169-65-39-43-58-106-58-187 0-82 20-144 59-187s98-64 175-64c22 0 45 2 68 6 23 3 45 9 68 16v164H448c-35 0-52 16-52 48 0 31 17 47 52 47h165c35 0 52-17 52-52V86c0-31-12-50-36-59-29-11-63-19-101-26s-75-11-112-11m-15 799c-43 0-65 21-65 63 0 41 22 62 65 62s65-21 65-62c0-42-22-63-65-63z"/><glyph unicode="Ḡ" horiz-adv-x="736" d="M416-10c-78 0-144 15-197 44-54 29-95 71-123 125S54 277 54 351c0 75 14 139 43 194 29 54 70 96 124 126 54 29 119 44 194 44 37 0 75-4 113-13 37-9 73-25 106-46 15-9 23-20 26-34 2-15 0-28-7-41s-17-21-30-26-28-3-44 6c-25 15-51 25-77 32s-55 10-87 10c-75 0-131-22-169-65-39-43-58-106-58-187 0-82 20-144 59-187s98-64 175-64c22 0 45 2 68 6 23 3 45 9 68 16v164H448c-35 0-52 16-52 48 0 31 17 47 52 47h165c35 0 52-17 52-52V86c0-31-12-50-36-59-29-11-63-19-101-26s-75-11-112-11M263 806c-26 0-39 12-39 37s13 37 39 37h277c26 0 39-12 39-37s-13-37-39-37z"/><glyph unicode="H" horiz-adv-x="773" d="M141-8C98-8 77 14 77 58v589c0 44 21 66 64 66s64-22 64-66V411h363v236c0 44 21 66 64 66s64-22 64-66V58c0-44-21-66-64-66s-64 22-64 66v246H205V58c0-44-21-66-64-66z"/><glyph unicode="Ħ" horiz-adv-x="817" d="M164-8c-21 0-37 6-48 18-11 11-17 27-17 48v453H55c-33 0-49 16-49 47s16 47 49 47h44v42c0 21 6 38 17 49s27 17 48 17c43 0 64-22 64-66v-42h362v42c0 21 6 38 17 49s27 17 48 17c43 0 64-22 64-66v-42h44c33 0 49-16 49-47s-16-47-49-47h-44V58c0-44-21-66-64-66s-65 22-65 66v236H228V58c0-44-21-66-64-66m64 409h362v110H228z"/><glyph unicode="Ḫ" horiz-adv-x="773" d="M141-8C98-8 77 14 77 58v589c0 44 21 66 64 66s64-22 64-66V411h363v236c0 44 21 66 64 66s64-22 64-66V58c0-44-21-66-64-66s-64 22-64 66v246H205V58c0-44-21-66-64-66m246-207c-41 0-76 10-104 31-29 20-48 49-57 86-3 14-2 25 4 34 5 8 13 12 24 13s20 0 27-4c7-5 13-13 16-25 5-19 16-33 32-44s35-17 58-17 43 6 59 17c15 11 26 25 31 44 3 12 9 20 16 25 7 4 16 5 27 4s20-5 25-13c5-9 6-20 3-34-9-37-28-66-56-86-29-21-64-31-105-31z"/><glyph unicode="Ĥ" horiz-adv-x="773" d="M141-8C98-8 77 14 77 58v589c0 44 21 66 64 66s64-22 64-66V411h363v236c0 44 21 66 64 66s64-22 64-66V58c0-44-21-66-64-66s-64 22-64 66v246H205V58c0-44-21-66-64-66m161 779c-11-11-23-16-36-14s-23 8-29 19c-7 10-6 21 3 34l73 101c18 27 42 40 73 40 30 0 55-13 74-40l72-101c9-13 11-24 5-34-7-11-16-17-29-19s-26 3-37 14l-85 98z"/><glyph unicode="Ḥ" horiz-adv-x="773" d="M141-8C98-8 77 14 77 58v589c0 44 21 66 64 66s64-22 64-66V411h363v236c0 44 21 66 64 66s64-22 64-66V58c0-44-21-66-64-66s-64 22-64 66v246H205V58c0-44-21-66-64-66m246-201c-43 0-65 21-65 63 0 41 22 62 65 62 44 0 66-21 66-62 0-42-22-63-66-63z"/><glyph unicode="I" horiz-adv-x="282" d="M141-8C98-8 77 14 77 58v589c0 44 21 66 64 66s64-22 64-66V58c0-44-21-66-64-66z"/><glyph unicode="Ĳ" horiz-adv-x="636" d="M141-8C98-8 77 14 77 58v589c0 44 21 66 64 66s64-22 64-66V58c0-44-21-66-64-66m187 1c-19-1-33 4-44 15s-16 24-16 41c0 13 4 24 12 34 7 9 18 14 33 15l30 2c59 4 89 37 89 98v450c0 43 21 65 64 65s64-22 64-65V199c0-63-17-111-50-146S427-1 362-5z"/><glyph unicode="Í" horiz-adv-x="282" d="M141-8C98-8 77 14 77 58v589c0 44 21 66 64 66s64-22 64-66V58c0-44-21-66-64-66m51 779c-8-9-17-13-26-13-10-1-19 2-26 8-8 5-13 12-15 21-3 9-1 18 5 27l78 115c9 14 21 21 34 22s26-3 37-10c11-8 18-18 21-29 3-12-1-24-12-36z"/><glyph unicode="Ĭ" horiz-adv-x="282" d="M141-8C98-8 77 14 77 58v589c0 44 21 66 64 66s64-22 64-66V58c0-44-21-66-64-66m0 768c-43 0-81 12-112 35-32 23-54 55-65 98-3 13-2 24 5 33 6 9 14 13 23 14 14 1 24-1 31-7 7-7 11-14 13-22 7-27 20-47 41-58 20-12 41-18 64-18s45 6 65 18c20 11 33 31 40 58 2 8 6 15 13 22 7 6 17 8 31 7 9-1 17-5 24-14 6-9 7-20 4-33-11-43-32-75-64-98s-70-35-113-35z"/><glyph unicode="Î" horiz-adv-x="282" d="M141-8C98-8 77 14 77 58v589c0 44 21 66 64 66s64-22 64-66V58c0-44-21-66-64-66M57 771c-11-11-23-16-36-14s-23 8-29 19c-7 10-6 21 3 34l73 101c18 27 42 40 73 40 30 0 55-13 74-40l72-101c9-13 11-24 5-34-7-11-16-17-29-19s-26 3-37 14l-85 98z"/><glyph unicode="Ȉ" horiz-adv-x="282" d="M141-8C98-8 77 14 77 58v589c0 44 21 66 64 66s64-22 64-66V58c0-44-21-66-64-66M29 770l-87 112c-10 13-13 26-10 37s10 19 21 26c10 6 21 8 34 6 12-3 22-11 29-25l65-121c7-12 7-23 1-32s-14-15-24-16c-11-2-20 2-29 13m144 3L94 882c-10 13-13 26-9 37s12 20 23 26c11 5 22 7 35 5 12-3 21-11 28-25l61-122c6-12 6-22-1-31s-16-14-27-15c-12-1-22 4-31 16z"/><glyph unicode="Ï" horiz-adv-x="282" d="M141-8C98-8 77 14 77 58v589c0 44 21 66 64 66s64-22 64-66V58c0-44-21-66-64-66m95 794c-41 0-62 21-62 62s21 61 62 61 61-20 61-61-20-62-61-62m-189 0c-19 0-34 5-45 16s-17 26-17 46c0 19 6 34 17 45s26 16 45 16c41 0 62-20 62-61s-21-62-62-62z"/><glyph unicode="Ḯ" horiz-adv-x="282" d="M141-8C98-8 77 14 77 58v589c0 44 21 66 64 66s64-22 64-66V58c0-44-21-66-64-66m38 901c-9-11-20-16-31-14-12 2-21 8-27 18-6 9-6 20 1 33l49 89c8 14 19 22 32 24s25 0 36-6c11-7 19-16 23-27 3-11-1-23-12-36M47 766c-19 0-34 4-45 13-11 8-17 20-17 35s6 27 17 36c11 8 26 12 45 12 41 0 62-16 62-48s-21-48-62-48m189 0c-41 0-62 16-62 48s21 48 62 48 61-16 61-48-20-48-61-48z"/><glyph unicode="İ" horiz-adv-x="282" d="M141-8C98-8 77 14 77 58v589c0 44 21 66 64 66s64-22 64-66V58c0-44-21-66-64-66m0 797c-43 0-65 21-65 63 0 41 22 62 65 62s65-21 65-62c0-42-22-63-65-63z"/><glyph unicode="Ị" horiz-adv-x="282" d="M141-8C98-8 77 14 77 58v589c0 44 21 66 64 66s64-22 64-66V58c0-44-21-66-64-66m0-201c-43 0-65 21-65 63 0 41 22 62 65 62 44 0 66-21 66-62 0-42-22-63-66-63z"/><glyph unicode="Ì" horiz-adv-x="282" d="M141-8C98-8 77 14 77 58v589c0 44 21 66 64 66s64-22 64-66V58c0-44-21-66-64-66M91 771L-5 876c-11 12-14 24-11 36 3 11 10 21 21 29 11 7 23 11 36 10s25-8 34-22l78-115c6-9 8-18 6-27-3-9-8-16-15-21-8-6-17-9-26-8-10 0-19 4-27 13z"/><glyph unicode="Ỉ" horiz-adv-x="282" d="M141-8C98-8 77 14 77 58v589c0 44 21 66 64 66s64-22 64-66V58c0-44-21-66-64-66m0 765c-25 0-38 9-38 26 0 16 5 28 14 37 9 8 19 15 28 22s14 14 14 23c0 13-13 20-40 20-5 0-10 0-16-1-7-1-13-2-19-3-23-5-37 0-42 15-3 8-2 16 1 23s9 12 20 15c11 4 25 7 40 9s30 3 46 3c33 0 58-6 77-17s28-27 28-46c0-15-4-26-11-35s-16-16-26-22c-10-7-19-13-26-20s-11-17-11-29c0-13-13-20-39-20z"/><glyph unicode="Ȋ" horiz-adv-x="282" d="M141-8C98-8 77 14 77 58v589c0 44 21 66 64 66s64-22 64-66V58c0-44-21-66-64-66M-8 760c-9 1-17 6-23 15-7 8-8 19-5 32 11 43 33 76 65 99 31 22 69 33 112 33s81-11 113-33c32-23 53-56 64-99 3-13 2-24-4-32-7-9-15-14-24-15-14-1-24 1-31 8-7 6-11 13-13 21-7 27-20 47-40 59-20 11-42 17-65 17s-44-6-64-17c-20-12-34-32-41-59-2-8-6-15-13-21-7-7-17-9-31-8z"/><glyph unicode="Ī" horiz-adv-x="282" d="M141-8C98-8 77 14 77 58v589c0 44 21 66 64 66s64-22 64-66V58c0-44-21-66-64-66M3 806c-26 0-39 12-39 37s13 37 39 37h277c26 0 39-12 39-37s-13-37-39-37z"/><glyph unicode="Į" horiz-adv-x="282" d="M157-195c-37 0-65 9-86 28s-32 44-32 76c0 20 5 39 14 57 9 17 22 33 38 46-9 11-14 27-14 46v589c0 44 21 66 64 66s64-22 64-66V58c0-15-3-27-8-37-6-11-13-18-22-22-15-7-29-17-40-30-11-14-17-29-17-46s5-29 16-38 24-13 40-13c10 0 20 1 30 4 16 5 27 3 34-6s9-19 6-30c-3-12-11-21-24-26-11-4-21-6-32-7s-22-2-31-2z"/><glyph unicode="Ĩ" horiz-adv-x="282" d="M141-8C98-8 77 14 77 58v589c0 44 21 66 64 66s64-22 64-66V58c0-44-21-66-64-66M-48 769c-11 1-19 4-25 11s-8 16-5 27c8 37 24 66 47 87 23 20 50 30 83 30 19 0 36-3 52-10s31-14 46-23 29-16 43-23c13-7 27-10 40-10 17 0 31 5 42 14 10 9 17 20 20 33 5 19 17 27 35 26 11-1 19-4 25-11s8-16 5-27c-8-37-23-66-45-86-23-21-51-31-84-31-19 0-36 3-52 10-17 7-32 14-47 23s-29 16-42 23c-14 7-28 10-41 10-17 0-30-4-41-13s-18-21-21-34c-5-19-17-27-35-26z"/><glyph unicode="J" horiz-adv-x="354" d="M46-7C27-8 13-3 2 8s-16 24-16 41c0 13 4 24 12 34 7 9 18 14 33 15l30 2c59 4 89 37 89 98v450c0 43 21 65 64 65s64-22 64-65V199c0-63-17-111-50-146S145-1 80-5z"/><glyph unicode="Ĵ" horiz-adv-x="354" d="M46-7C27-8 13-3 2 8s-16 24-16 41c0 13 4 24 12 34 7 9 18 14 33 15l30 2c59 4 89 37 89 98v450c0 43 21 65 64 65s64-22 64-65V199c0-63-17-111-50-146S145-1 80-5m49 776c-11-11-23-16-36-14s-23 8-29 19c-7 10-6 21 3 34l73 101c18 27 42 40 73 40 30 0 55-13 74-40l72-101c9-13 11-24 5-34-7-11-16-17-29-19s-26 3-37 14l-85 98z"/><glyph unicode="K" horiz-adv-x="665" d="M141-8C98-8 77 14 77 58v590c0 43 21 65 64 65s64-22 64-65V393h2l287 288c11 11 21 19 32 24s23 8 36 8c19 0 33-5 42-15 8-10 11-22 10-35-2-13-9-26-20-37L331 366 608 85c14-13 21-27 22-42s-4-27-13-36C607-3 593-8 574-8c-16 0-29 3-38 10-10 7-21 16-34 29L207 326h-2V58c0-44-21-66-64-66z"/><glyph unicode="Ķ" horiz-adv-x="665" d="M141-8C98-8 77 14 77 58v590c0 43 21 65 64 65s64-22 64-65V393h2l287 288c11 11 21 19 32 24s23 8 36 8c19 0 33-5 42-15 8-10 11-22 10-35-2-13-9-26-20-37L331 366 608 85c14-13 21-27 22-42s-4-27-13-36C607-3 593-8 574-8c-16 0-29 3-38 10-10 7-21 16-34 29L207 326h-2V58c0-44-21-66-64-66m217-252c-9-11-18-15-29-14s-19 7-24 16-3 20 6 33c8 12 14 26 17 41-43 2-64 22-64 59 0 39 22 58 67 58s68-23 68-69c0-21-3-42-10-64-7-23-17-43-31-60z"/><glyph unicode="L" horiz-adv-x="562" d="M142 0C99 0 77 22 77 66v577c0 43 21 65 64 65s64-22 64-65V109h290c37 0 56-18 56-54 0-37-19-55-56-55z"/><glyph unicode="Ǉ" horiz-adv-x="956" d="M142 0C99 0 77 22 77 66v577c0 43 21 65 64 65s64-22 64-65V109h290c37 0 56-18 56-54 0-37-19-55-56-55m153-7c-19-1-33 4-44 15s-16 24-16 41c0 13 4 24 12 34 7 9 18 14 33 15l30 2c59 4 89 37 89 98v450c0 43 21 65 64 65s64-22 64-65V199c0-63-17-111-50-146S747-1 682-5z"/><glyph unicode="Ĺ" horiz-adv-x="562" d="M142 0C99 0 77 22 77 66v577c0 43 21 65 64 65s64-22 64-65V109h290c37 0 56-18 56-54 0-37-19-55-56-55M192 771c-8-9-17-13-26-13-10-1-19 2-26 8-8 5-13 12-15 21-3 9-1 18 5 27l78 115c9 14 21 21 34 22s26-3 37-10c11-8 18-18 21-29 3-12-1-24-12-36z"/><glyph unicode="Ľ" horiz-adv-x="562" d="M142 0C99 0 77 22 77 66v577c0 43 21 65 64 65s64-22 64-65V109h290c37 0 56-18 56-54 0-37-19-55-56-55M348 462c-25 0-37 13-37 39v163c0 33 16 49 49 49s47-17 44-51l-16-163c-2-25-15-37-40-37z"/><glyph unicode="Ļ" horiz-adv-x="562" d="M142 0C99 0 77 22 77 66v577c0 43 21 65 64 65s64-22 64-65V109h290c37 0 56-18 56-54 0-37-19-55-56-55M336-260c-9-11-18-15-29-14s-19 7-24 16-3 20 6 33c8 12 14 26 17 41-43 2-64 22-64 59 0 39 22 58 67 58s68-23 68-69c0-21-3-42-10-64-7-23-17-43-31-60z"/><glyph unicode="Ŀ" horiz-adv-x="562" d="M142 0C99 0 77 22 77 66v577c0 43 21 65 64 65s64-22 64-65V109h290c37 0 56-18 56-54 0-37-19-55-56-55m-70 320c-23 0-41 7-54 21-14 14-21 32-21 53 0 22 7 40 21 54 13 13 31 20 54 20s42-7 55-20c13-14 19-32 19-54 0-21-6-39-19-53s-32-21-55-21z"/><glyph unicode="Ḷ" horiz-adv-x="562" d="M142 0C99 0 77 22 77 66v577c0 43 21 65 64 65s64-22 64-65V109h290c37 0 56-18 56-54 0-37-19-55-56-55M310-209c-43 0-65 21-65 63 0 41 22 62 65 62 44 0 66-21 66-62 0-42-22-63-66-63z"/><glyph unicode="ǈ" horiz-adv-x="821" d="M142 0C99 0 77 22 77 66v577c0 43 21 65 64 65s64-22 64-65V109h290c37 0 56-18 56-54 0-37-19-55-56-55m198 589c-23 0-41 6-54 18-13 11-20 27-20 48s7 38 20 49 31 17 54 17c49 0 74-22 74-66s-25-66-74-66M567-189c-19-1-33 2-42 11-10 8-16 18-17 30s1 23 8 33c6 10 16 16 29 17 30 3 52 11 66 26 13 14 20 36 20 65v441c0 42 21 63 63 63 41 0 62-21 62-63V4c0-65-15-112-46-141s-78-47-143-52z"/><glyph unicode="Ḻ" horiz-adv-x="562" d="M142 0C99 0 77 22 77 66v577c0 43 21 65 64 65s64-22 64-65V109h290c37 0 56-18 56-54 0-37-19-55-56-55M187-165c-26 0-39 12-39 37s13 37 39 37h247c26 0 39-12 39-37s-13-37-39-37z"/><glyph unicode="Ł" horiz-adv-x="562" d="M142 0C99 0 77 22 77 66v577c0 43 21 65 64 65s64-22 64-65V109h290c37 0 56-18 56-54 0-37-19-55-56-55M44 248c-15-9-29-11-42-7s-22 12-28 23c-7 11-8 23-5 36s12 24 27 33l335 193c15 9 29 12 42 8 13-5 22-13 29-24 6-11 8-23 5-36s-13-25-28-34z"/><glyph unicode="M" horiz-adv-x="868" d="M137-8C98-8 79 12 79 52v601c0 40 20 60 60 60 17 0 30-3 40-9 9-7 18-18 26-33l231-427 231 427c8 15 17 26 26 33 9 6 22 9 39 9 39 0 58-20 58-60V52c0-40-19-60-58-60s-58 20-58 60v423L486 132c-7-11-14-20-21-25s-17-8-30-8-23 3-31 9c-8 5-15 13-21 24L195 473V52c0-40-19-60-58-60z"/><glyph unicode="Ṃ" horiz-adv-x="868" d="M137-8C98-8 79 12 79 52v601c0 40 20 60 60 60 17 0 30-3 40-9 9-7 18-18 26-33l231-427 231 427c8 15 17 26 26 33 9 6 22 9 39 9 39 0 58-20 58-60V52c0-40-19-60-58-60s-58 20-58 60v423L486 132c-7-11-14-20-21-25s-17-8-30-8-23 3-31 9c-8 5-15 13-21 24L195 473V52c0-40-19-60-58-60m298-201c-43 0-65 21-65 63 0 41 22 62 65 62 44 0 66-21 66-62 0-42-22-63-66-63z"/><glyph unicode="N" horiz-adv-x="748" d="M137-8C97-8 77 13 77 54v595c0 21 5 37 16 48 10 11 23 16 40 16 15 0 27-3 35-8 7-6 16-16 27-29l357-463v439c0 41 20 61 60 61 39 0 59-20 59-61V52c0-19-5-33-14-44S635-8 619-8c-15 0-27 3-36 9s-19 16-30 29L196 494V54c0-41-20-62-59-62z"/><glyph unicode="Ǌ" horiz-adv-x="1102" d="M137-8C97-8 77 13 77 54v595c0 21 5 37 16 48 10 11 23 16 40 16 15 0 27-3 35-8 7-6 16-16 27-29l357-463v439c0 41 20 61 60 61 39 0 59-20 59-61V52c0-19-5-33-14-44S635-8 619-8c-15 0-27 3-36 9s-19 16-30 29L196 494V54c0-41-20-62-59-62m657 1c-19-1-33 4-44 15s-16 24-16 41c0 13 4 24 12 34 7 9 18 14 33 15l30 2c59 4 89 37 89 98v450c0 43 21 65 64 65s64-22 64-65V199c0-63-17-111-50-146S893-1 828-5z"/><glyph unicode="Ń" horiz-adv-x="748" d="M137-8C97-8 77 13 77 54v595c0 21 5 37 16 48 10 11 23 16 40 16 15 0 27-3 35-8 7-6 16-16 27-29l357-463v439c0 41 20 61 60 61 39 0 59-20 59-61V52c0-19-5-33-14-44S635-8 619-8c-15 0-27 3-36 9s-19 16-30 29L196 494V54c0-41-20-62-59-62m288 779c-8-9-17-13-26-13-10-1-19 2-26 8-8 5-13 12-15 21-3 9-1 18 5 27l78 115c9 14 21 21 34 22s26-3 37-10c11-8 18-18 21-29 3-12-1-24-12-36z"/><glyph unicode="Ň" horiz-adv-x="748" d="M137-8C97-8 77 13 77 54v595c0 21 5 37 16 48 10 11 23 16 40 16 15 0 27-3 35-8 7-6 16-16 27-29l357-463v439c0 41 20 61 60 61 39 0 59-20 59-61V52c0-19-5-33-14-44S635-8 619-8c-15 0-27 3-36 9s-19 16-30 29L196 494V54c0-41-20-62-59-62m237 762c-31 0-55 13-73 39l-73 102c-7 9-9 18-6 27 2 9 7 16 15 21s17 7 27 6c9-1 18-7 26-16l84-98 85 98c11 13 23 18 36 16s22-8 29-18c7-11 5-23-4-36l-72-102c-18-26-43-39-74-39z"/><glyph unicode="Ņ" horiz-adv-x="748" d="M137-8C97-8 77 13 77 54v595c0 21 5 37 16 48 10 11 23 16 40 16 15 0 27-3 35-8 7-6 16-16 27-29l357-463v439c0 41 20 61 60 61 39 0 59-20 59-61V52c0-19-5-33-14-44S635-8 619-8c-15 0-27 3-36 9s-19 16-30 29L196 494V54c0-41-20-62-59-62m263-252c-9-11-18-15-29-14s-19 7-24 16-3 20 6 33c8 12 14 26 17 41-43 2-64 22-64 59 0 39 22 58 67 58s68-23 68-69c0-21-3-42-10-64-7-23-17-43-31-60z"/><glyph unicode="Ṅ" horiz-adv-x="748" d="M137-8C97-8 77 13 77 54v595c0 21 5 37 16 48 10 11 23 16 40 16 15 0 27-3 35-8 7-6 16-16 27-29l357-463v439c0 41 20 61 60 61 39 0 59-20 59-61V52c0-19-5-33-14-44S635-8 619-8c-15 0-27 3-36 9s-19 16-30 29L196 494V54c0-41-20-62-59-62m237 797c-43 0-65 21-65 63 0 41 22 62 65 62s65-21 65-62c0-42-22-63-65-63z"/><glyph unicode="Ṇ" horiz-adv-x="748" d="M137-8C97-8 77 13 77 54v595c0 21 5 37 16 48 10 11 23 16 40 16 15 0 27-3 35-8 7-6 16-16 27-29l357-463v439c0 41 20 61 60 61 39 0 59-20 59-61V52c0-19-5-33-14-44S635-8 619-8c-15 0-27 3-36 9s-19 16-30 29L196 494V54c0-41-20-62-59-62m237-201c-43 0-65 21-65 63 0 41 22 62 65 62 44 0 66-21 66-62 0-42-22-63-66-63z"/><glyph unicode="Ŋ" horiz-adv-x="748" d="M480-189c-19-1-33 2-42 11s-15 19-16 31 1 23 8 33c7 9 17 15 30 16 31 3 54 12 69 25s23 35 23 66v38L196 494V54c0-41-20-62-59-62-40 0-60 21-60 62v595c0 21 5 37 16 48 10 11 23 16 40 16 15 0 27-3 35-8 7-6 16-16 27-29l357-463v439c0 41 20 61 60 61 39 0 59-20 59-61V9c0-69-16-118-47-147-32-29-80-46-144-51z"/><glyph unicode="ǋ" horiz-adv-x="1007" d="M137-8C97-8 77 13 77 54v595c0 21 5 37 16 48 10 11 23 16 40 16 15 0 27-3 35-8 7-6 16-16 27-29l357-463v439c0 41 20 61 60 61 39 0 59-20 59-61V52c0-19-5-33-14-44S635-8 619-8c-15 0-27 3-36 9s-19 16-30 29L196 494V54c0-41-20-62-59-62m742 597c-23 0-41 6-54 18-13 11-20 27-20 48s7 38 20 49 31 17 54 17c49 0 74-22 74-66s-25-66-74-66M753-189c-19-1-33 2-42 11-10 8-16 18-17 30s1 23 8 33c6 10 16 16 29 17 30 3 52 11 66 26 13 14 20 36 20 65v441c0 42 21 63 63 63 41 0 62-21 62-63V4c0-65-15-112-46-141s-78-47-143-52z"/><glyph unicode="Ṉ" horiz-adv-x="748" d="M137-8C97-8 77 13 77 54v595c0 21 5 37 16 48 10 11 23 16 40 16 15 0 27-3 35-8 7-6 16-16 27-29l357-463v439c0 41 20 61 60 61 39 0 59-20 59-61V52c0-19-5-33-14-44S635-8 619-8c-15 0-27 3-36 9s-19 16-30 29L196 494V54c0-41-20-62-59-62m114-157c-26 0-39 12-39 37s13 37 39 37h247c26 0 39-12 39-37s-13-37-39-37z"/><glyph unicode="Ñ" horiz-adv-x="748" d="M137-8C97-8 77 13 77 54v595c0 21 5 37 16 48 10 11 23 16 40 16 15 0 27-3 35-8 7-6 16-16 27-29l357-463v439c0 41 20 61 60 61 39 0 59-20 59-61V52c0-19-5-33-14-44S635-8 619-8c-15 0-27 3-36 9s-19 16-30 29L196 494V54c0-41-20-62-59-62m48 777c-11 1-19 4-25 11s-8 16-5 27c8 37 24 66 47 87 23 20 50 30 83 30 19 0 36-3 52-10s31-14 46-23 29-16 43-23c13-7 27-10 40-10 17 0 31 5 42 14 10 9 17 20 20 33 5 19 17 27 35 26 11-1 19-4 25-11s8-16 5-27c-8-37-23-66-45-86-23-21-51-31-84-31-19 0-36 3-52 10-17 7-32 14-47 23s-29 16-42 23c-14 7-28 10-41 10-17 0-30-4-41-13s-18-21-21-34c-5-19-17-27-35-26z"/><glyph unicode="O" horiz-adv-x="785" d="M393-10c-68 0-127 15-178 45s-91 72-119 127c-28 54-42 118-42 191 0 74 14 138 42 192s67 96 118 126c51 29 110 44 179 44s128-15 179-44c51-30 90-72 118-126s42-118 42-191c0-74-14-138-42-192-28-55-67-97-118-127S462-10 393-10m0 110c65 0 115 22 151 67s54 107 54 186c0 80-18 142-53 186-36 44-87 66-152 66s-115-22-151-66-54-106-54-186c0-79 18-141 54-186s86-67 151-67z"/><glyph unicode="Ó" horiz-adv-x="785" d="M393-10c-68 0-127 15-178 45s-91 72-119 127c-28 54-42 118-42 191 0 74 14 138 42 192s67 96 118 126c51 29 110 44 179 44s128-15 179-44c51-30 90-72 118-126s42-118 42-191c0-74-14-138-42-192-28-55-67-97-118-127S462-10 393-10m0 110c65 0 115 22 151 67s54 107 54 186c0 80-18 142-53 186-36 44-87 66-152 66s-115-22-151-66-54-106-54-186c0-79 18-141 54-186s86-67 151-67m50 671c-8-9-17-13-26-13-10-1-19 2-26 8-8 5-13 12-15 21-3 9-1 18 5 27l78 115c9 14 21 21 34 22s26-3 37-10c11-8 18-18 21-29 3-12-1-24-12-36z"/><glyph unicode="Ŏ" horiz-adv-x="785" d="M393-10c-68 0-127 15-178 45s-91 72-119 127c-28 54-42 118-42 191 0 74 14 138 42 192s67 96 118 126c51 29 110 44 179 44s128-15 179-44c51-30 90-72 118-126s42-118 42-191c0-74-14-138-42-192-28-55-67-97-118-127S462-10 393-10m0 110c65 0 115 22 151 67s54 107 54 186c0 80-18 142-53 186-36 44-87 66-152 66s-115-22-151-66-54-106-54-186c0-79 18-141 54-186s86-67 151-67m-1 660c-43 0-81 12-112 35-32 23-54 55-65 98-3 13-2 24 5 33 6 9 14 13 23 14 14 1 24-1 31-7 7-7 11-14 13-22 7-27 20-47 41-58 20-12 41-18 64-18s45 6 65 18c20 11 33 31 40 58 2 8 6 15 13 22 7 6 17 8 31 7 9-1 17-5 24-14 6-9 7-20 4-33-11-43-32-75-64-98s-70-35-113-35z"/><glyph unicode="Ô" horiz-adv-x="785" d="M393-10c-68 0-127 15-178 45s-91 72-119 127c-28 54-42 118-42 191 0 74 14 138 42 192s67 96 118 126c51 29 110 44 179 44s128-15 179-44c51-30 90-72 118-126s42-118 42-191c0-74-14-138-42-192-28-55-67-97-118-127S462-10 393-10m0 110c65 0 115 22 151 67s54 107 54 186c0 80-18 142-53 186-36 44-87 66-152 66s-115-22-151-66-54-106-54-186c0-79 18-141 54-186s86-67 151-67m-85 671c-11-11-23-16-36-14s-23 8-29 19c-7 10-6 21 3 34l73 101c18 27 42 40 73 40 30 0 55-13 74-40l72-101c9-13 11-24 5-34-7-11-16-17-29-19s-26 3-37 14l-85 98z"/><glyph unicode="Ố" horiz-adv-x="785" d="M393-10c-68 0-127 15-178 45s-91 72-119 127c-28 54-42 118-42 191 0 74 14 138 42 192s67 96 118 126c51 29 110 44 179 44s128-15 179-44c51-30 90-72 118-126s42-118 42-191c0-74-14-138-42-192-28-55-67-97-118-127S462-10 393-10m0 110c65 0 115 22 151 67s54 107 54 186c0 80-18 142-53 186-36 44-87 66-152 66s-115-22-151-66-54-106-54-186c0-79 18-141 54-186s86-67 151-67m174 765c-8-10-17-14-28-13s-19 6-24 15c-6 9-5 20 2 33l62 110c7 13 17 21 28 23 11 1 22-1 32-6 9-6 16-14 19-25s-1-22-10-34M311 769c-11-12-22-17-34-15-12 1-21 7-26 18-6 10-5 21 4 34l65 97c10 15 21 25 33 31 11 5 24 8 39 8s29-3 41-8c11-6 22-16 31-31l65-97c9-13 10-24 5-34-5-11-14-17-25-18-12-2-24 3-35 15l-82 91z"/><glyph unicode="Ộ" horiz-adv-x="785" d="M393-10c-68 0-127 15-178 45s-91 72-119 127c-28 54-42 118-42 191 0 74 14 138 42 192s67 96 118 126c51 29 110 44 179 44s128-15 179-44c51-30 90-72 118-126s42-118 42-191c0-74-14-138-42-192-28-55-67-97-118-127S462-10 393-10m0 110c65 0 115 22 151 67s54 107 54 186c0 80-18 142-53 186-36 44-87 66-152 66s-115-22-151-66-54-106-54-186c0-79 18-141 54-186s86-67 151-67m-1-309c-43 0-65 21-65 63 0 41 22 62 65 62 44 0 66-21 66-62 0-42-22-63-66-63m-84 980c-11-11-23-16-36-14s-23 8-29 19c-7 10-6 21 3 34l73 101c18 27 42 40 73 40 30 0 55-13 74-40l72-101c9-13 11-24 5-34-7-11-16-17-29-19s-26 3-37 14l-85 98z"/><glyph unicode="Ồ" horiz-adv-x="785" d="M393-10c-68 0-127 15-178 45s-91 72-119 127c-28 54-42 118-42 191 0 74 14 138 42 192s67 96 118 126c51 29 110 44 179 44s128-15 179-44c51-30 90-72 118-126s42-118 42-191c0-74-14-138-42-192-28-55-67-97-118-127S462-10 393-10m0 110c65 0 115 22 151 67s54 107 54 186c0 80-18 142-53 186-36 44-87 66-152 66s-115-22-151-66-54-106-54-186c0-79 18-141 54-186s86-67 151-67m153 765l-81 103c-9 12-12 23-9 34s9 19 19 25c9 5 20 7 31 6 11-2 21-10 28-23l62-110c7-13 8-24 3-33-6-9-14-14-25-15s-20 3-28 13m-235-96c-11-12-22-17-34-15-12 1-21 7-26 18-6 10-5 21 4 34l65 97c10 15 21 25 33 31 11 5 24 8 39 8s29-3 41-8c11-6 22-16 31-31l65-97c9-13 10-24 5-34-5-11-14-17-25-18-12-2-24 3-35 15l-82 91z"/><glyph unicode="Ổ" horiz-adv-x="785" d="M393-10c-68 0-127 15-178 45s-91 72-119 127c-28 54-42 118-42 191 0 74 14 138 42 192s67 96 118 126c51 29 110 44 179 44s128-15 179-44c51-30 90-72 118-126s42-118 42-191c0-74-14-138-42-192-28-55-67-97-118-127S462-10 393-10m0 110c65 0 115 22 151 67s54 107 54 186c0 80-18 142-53 186-36 44-87 66-152 66s-115-22-151-66-54-106-54-186c0-79 18-141 54-186s86-67 151-67m160 765c-9-5-17-5-26-2s-14 8-16 15c-3 7 0 14 8 21 11 9 19 17 26 24 6 7 9 15 9 24 0 16-12 24-37 24-5 0-10 0-15-1l-18-3c-19-5-31 0-36 15-5 17 2 28 21 34 11 3 23 6 36 7 12 1 25 2 38 2 29 0 52-5 69-14 16-9 24-24 24-45 0-13-4-26-13-39s-19-25-32-35c-13-11-25-20-38-27m-242-96c-11-12-22-17-34-15-12 1-21 7-26 18-6 10-5 21 4 34l65 97c10 15 21 25 33 31 11 5 24 8 39 8s29-3 41-8c11-6 22-16 31-31l65-97c9-13 10-24 5-34-5-11-14-17-25-18-12-2-24 3-35 15l-82 91z"/><glyph unicode="Ỗ" horiz-adv-x="785" d="M393-10c-68 0-127 15-178 45s-91 72-119 127c-28 54-42 118-42 191 0 74 14 138 42 192s67 96 118 126c51 29 110 44 179 44s128-15 179-44c51-30 90-72 118-126s42-118 42-191c0-74-14-138-42-192-28-55-67-97-118-127S462-10 393-10m0 110c65 0 115 22 151 67s54 107 54 186c0 80-18 142-53 186-36 44-87 66-152 66s-115-22-151-66-54-106-54-186c0-79 18-141 54-186s86-67 151-67M251 922c-9 1-16 4-21 11s-7 15-4 26c7 25 19 43 37 56 17 13 38 19 63 19 18 0 34-4 49-11s29-15 42-22 25-11 38-11c10 0 19 2 27 6 8 3 14 9 17 18 6 15 18 23 35 22 9-1 17-4 22-10 5-7 6-16 3-27-7-25-19-43-36-56-18-13-39-19-64-19-18 0-34 4-49 11s-29 15-42 22-25 11-38 11c-10 0-19-2-27-5-8-4-14-10-17-19-6-15-18-23-35-22m51-159c-11-9-21-11-31-8-11 3-18 9-21 18-4 9-2 18 6 27l59 70c11 13 23 23 36 28s26 7 41 7 30-2 43-7 24-15 35-28l58-70c8-9 10-19 7-28-4-9-11-15-21-18s-21 0-32 9l-90 74z"/><glyph unicode="Ȍ" horiz-adv-x="785" d="M393-10c-68 0-127 15-178 45s-91 72-119 127c-28 54-42 118-42 191 0 74 14 138 42 192s67 96 118 126c51 29 110 44 179 44s128-15 179-44c51-30 90-72 118-126s42-118 42-191c0-74-14-138-42-192-28-55-67-97-118-127S462-10 393-10m0 110c65 0 115 22 151 67s54 107 54 186c0 80-18 142-53 186-36 44-87 66-152 66s-115-22-151-66-54-106-54-186c0-79 18-141 54-186s86-67 151-67M280 770l-87 112c-10 13-13 26-10 37s10 19 21 26c10 6 21 8 34 6 12-3 22-11 29-25l65-121c7-12 7-23 1-32s-14-15-24-16c-11-2-20 2-29 13m144 3l-79 109c-10 13-13 26-9 37s12 20 23 26c11 5 22 7 35 5 12-3 21-11 28-25l61-122c6-12 6-22-1-31s-16-14-27-15c-12-1-22 4-31 16z"/><glyph unicode="Ö" horiz-adv-x="785" d="M393-10c-68 0-127 15-178 45s-91 72-119 127c-28 54-42 118-42 191 0 74 14 138 42 192s67 96 118 126c51 29 110 44 179 44s128-15 179-44c51-30 90-72 118-126s42-118 42-191c0-74-14-138-42-192-28-55-67-97-118-127S462-10 393-10m0 110c65 0 115 22 151 67s54 107 54 186c0 80-18 142-53 186-36 44-87 66-152 66s-115-22-151-66-54-106-54-186c0-79 18-141 54-186s86-67 151-67m94 686c-41 0-62 21-62 62s21 61 62 61 61-20 61-61-20-62-61-62m-189 0c-19 0-34 5-45 16s-17 26-17 46c0 19 6 34 17 45s26 16 45 16c41 0 62-20 62-61s-21-62-62-62z"/><glyph unicode="Ȫ" horiz-adv-x="785" d="M393-10c-68 0-127 15-178 45s-91 72-119 127c-28 54-42 118-42 191 0 74 14 138 42 192s67 96 118 126c51 29 110 44 179 44s128-15 179-44c51-30 90-72 118-126s42-118 42-191c0-74-14-138-42-192-28-55-67-97-118-127S462-10 393-10m0 110c65 0 115 22 151 67s54 107 54 186c0 80-18 142-53 186-36 44-87 66-152 66s-115-22-151-66-54-106-54-186c0-79 18-141 54-186s86-67 151-67M272 924c-28 0-42 12-42 37s14 37 42 37h240c28 0 42-12 42-37s-14-37-42-37M298 783c-19 0-34 4-45 13s-17 21-17 36 6 27 17 36c11 8 26 12 45 12 41 0 62-16 62-48 0-33-21-49-62-49m189 0c-41 0-62 16-62 49 0 32 21 48 62 48s61-16 61-48c0-33-20-49-61-49z"/><glyph unicode="Ȱ" horiz-adv-x="785" d="M393-10c-68 0-127 15-178 45s-91 72-119 127c-28 54-42 118-42 191 0 74 14 138 42 192s67 96 118 126c51 29 110 44 179 44s128-15 179-44c51-30 90-72 118-126s42-118 42-191c0-74-14-138-42-192-28-55-67-97-118-127S462-10 393-10m0 110c65 0 115 22 151 67s54 107 54 186c0 80-18 142-53 186-36 44-87 66-152 66s-115-22-151-66-54-106-54-186c0-79 18-141 54-186s86-67 151-67M272 924c-28 0-42 12-42 37s14 37 42 37h240c28 0 42-12 42-37s-14-37-42-37M393 783c-19 0-34 4-45 13s-17 21-17 36 6 27 17 36c11 8 26 12 45 12 41 0 62-16 62-48 0-33-21-49-62-49z"/><glyph unicode="Ọ" horiz-adv-x="785" d="M393-10c-68 0-127 15-178 45s-91 72-119 127c-28 54-42 118-42 191 0 74 14 138 42 192s67 96 118 126c51 29 110 44 179 44s128-15 179-44c51-30 90-72 118-126s42-118 42-191c0-74-14-138-42-192-28-55-67-97-118-127S462-10 393-10m0 110c65 0 115 22 151 67s54 107 54 186c0 80-18 142-53 186-36 44-87 66-152 66s-115-22-151-66-54-106-54-186c0-79 18-141 54-186s86-67 151-67m-1-309c-43 0-65 21-65 63 0 41 22 62 65 62 44 0 66-21 66-62 0-42-22-63-66-63z"/><glyph unicode="Ò" horiz-adv-x="785" d="M393-10c-68 0-127 15-178 45s-91 72-119 127c-28 54-42 118-42 191 0 74 14 138 42 192s67 96 118 126c51 29 110 44 179 44s128-15 179-44c51-30 90-72 118-126s42-118 42-191c0-74-14-138-42-192-28-55-67-97-118-127S462-10 393-10m0 110c65 0 115 22 151 67s54 107 54 186c0 80-18 142-53 186-36 44-87 66-152 66s-115-22-151-66-54-106-54-186c0-79 18-141 54-186s86-67 151-67m-51 671l-96 105c-11 12-14 24-11 36 3 11 10 21 21 29 11 7 23 11 36 10s25-8 34-22l78-115c6-9 8-18 6-27-3-9-8-16-15-21-8-6-17-9-26-8-10 0-19 4-27 13z"/><glyph unicode="Ỏ" horiz-adv-x="785" d="M393-10c-68 0-127 15-178 45s-91 72-119 127c-28 54-42 118-42 191 0 74 14 138 42 192s67 96 118 126c51 29 110 44 179 44s128-15 179-44c51-30 90-72 118-126s42-118 42-191c0-74-14-138-42-192-28-55-67-97-118-127S462-10 393-10m0 110c65 0 115 22 151 67s54 107 54 186c0 80-18 142-53 186-36 44-87 66-152 66s-115-22-151-66-54-106-54-186c0-79 18-141 54-186s86-67 151-67m-1 657c-25 0-38 9-38 26 0 16 5 28 14 37 9 8 19 15 28 22s14 14 14 23c0 13-13 20-40 20-5 0-10 0-16-1-7-1-13-2-19-3-23-5-37 0-42 15-3 8-2 16 1 23s9 12 20 15c11 4 25 7 40 9s30 3 46 3c33 0 58-6 77-17s28-27 28-46c0-15-4-26-11-35s-16-16-26-22c-10-7-19-13-26-20s-11-17-11-29c0-13-13-20-39-20z"/><glyph unicode="Ơ" horiz-adv-x="785" d="M393-10c-68 0-127 15-178 45s-91 72-119 127c-28 54-42 118-42 191 0 74 14 138 42 192s67 96 118 126c51 29 110 44 179 44s128-15 179-44c51-30 90-72 118-126s42-118 42-191c0-74-14-138-42-192-28-55-67-97-118-127S462-10 393-10m0 110c65 0 115 22 151 67s54 107 54 186c0 80-18 142-53 186-36 44-87 66-152 66s-115-22-151-66-54-106-54-186c0-79 18-141 54-186s86-67 151-67m101 541l-44 68c15-1 29-1 40-2s22-2 33-2c35 0 60 8 75 24 14 15 21 37 21 65 0 14 5 25 14 34 9 8 23 12 41 12 17 0 31-5 40-14s14-21 14-36c0-27-6-51-18-74s-29-41-50-54c-22-14-47-21-75-21z"/><glyph unicode="Ớ" horiz-adv-x="785" d="M393-10c-68 0-127 15-178 45s-91 72-119 127c-28 54-42 118-42 191 0 74 14 138 42 192s67 96 118 126c51 29 110 44 179 44s128-15 179-44c51-30 90-72 118-126s42-118 42-191c0-74-14-138-42-192-28-55-67-97-118-127S462-10 393-10m0 110c65 0 115 22 151 67s54 107 54 186c0 80-18 142-53 186-36 44-87 66-152 66s-115-22-151-66-54-106-54-186c0-79 18-141 54-186s86-67 151-67m101 541l-44 68c15-1 29-1 40-2s22-2 33-2c35 0 60 8 75 24 14 15 21 37 21 65 0 14 5 25 14 34 9 8 23 12 41 12 17 0 31-5 40-14s14-21 14-36c0-27-6-51-18-74s-29-41-50-54c-22-14-47-21-75-21M440 771c-8-9-17-13-26-13-10-1-19 2-26 8-8 5-13 12-15 21-3 9-1 18 5 27l78 115c9 14 21 21 34 22s26-3 37-10c11-8 18-18 21-29 3-12-1-24-12-36z"/><glyph unicode="Ợ" horiz-adv-x="785" d="M393-10c-68 0-127 15-178 45s-91 72-119 127c-28 54-42 118-42 191 0 74 14 138 42 192s67 96 118 126c51 29 110 44 179 44s128-15 179-44c51-30 90-72 118-126s42-118 42-191c0-74-14-138-42-192-28-55-67-97-118-127S462-10 393-10m0 110c65 0 115 22 151 67s54 107 54 186c0 80-18 142-53 186-36 44-87 66-152 66s-115-22-151-66-54-106-54-186c0-79 18-141 54-186s86-67 151-67m101 541l-44 68c15-1 29-1 40-2s22-2 33-2c35 0 60 8 75 24 14 15 21 37 21 65 0 14 5 25 14 34 9 8 23 12 41 12 17 0 31-5 40-14s14-21 14-36c0-27-6-51-18-74s-29-41-50-54c-22-14-47-21-75-21M390-209c-43 0-65 21-65 63 0 41 22 62 65 62 44 0 66-21 66-62 0-42-22-63-66-63z"/><glyph unicode="Ờ" horiz-adv-x="785" d="M393-10c-68 0-127 15-178 45s-91 72-119 127c-28 54-42 118-42 191 0 74 14 138 42 192s67 96 118 126c51 29 110 44 179 44s128-15 179-44c51-30 90-72 118-126s42-118 42-191c0-74-14-138-42-192-28-55-67-97-118-127S462-10 393-10m0 110c65 0 115 22 151 67s54 107 54 186c0 80-18 142-53 186-36 44-87 66-152 66s-115-22-151-66-54-106-54-186c0-79 18-141 54-186s86-67 151-67m101 541l-44 68c15-1 29-1 40-2s22-2 33-2c35 0 60 8 75 24 14 15 21 37 21 65 0 14 5 25 14 34 9 8 23 12 41 12 17 0 31-5 40-14s14-21 14-36c0-27-6-51-18-74s-29-41-50-54c-22-14-47-21-75-21M339 771l-96 105c-11 12-14 24-11 36 3 11 10 21 21 29 11 7 23 11 36 10s25-8 34-22l78-115c6-9 8-18 6-27-3-9-8-16-15-21-8-6-17-9-26-8-10 0-19 4-27 13z"/><glyph unicode="Ở" horiz-adv-x="785" d="M393-10c-68 0-127 15-178 45s-91 72-119 127c-28 54-42 118-42 191 0 74 14 138 42 192s67 96 118 126c51 29 110 44 179 44s128-15 179-44c51-30 90-72 118-126s42-118 42-191c0-74-14-138-42-192-28-55-67-97-118-127S462-10 393-10m0 110c65 0 115 22 151 67s54 107 54 186c0 80-18 142-53 186-36 44-87 66-152 66s-115-22-151-66-54-106-54-186c0-79 18-141 54-186s86-67 151-67m101 541l-44 68c15-1 29-1 40-2s22-2 33-2c35 0 60 8 75 24 14 15 21 37 21 65 0 14 5 25 14 34 9 8 23 12 41 12 17 0 31-5 40-14s14-21 14-36c0-27-6-51-18-74s-29-41-50-54c-22-14-47-21-75-21M389 757c-25 0-38 9-38 26 0 16 5 28 14 37 9 8 19 15 28 22s14 14 14 23c0 13-13 20-40 20-5 0-10 0-16-1-7-1-13-2-19-3-23-5-37 0-42 15-3 8-2 16 1 23s9 12 20 15c11 4 25 7 40 9s30 3 46 3c33 0 58-6 77-17s28-27 28-46c0-15-4-26-11-35s-16-16-26-22c-10-7-19-13-26-20s-11-17-11-29c0-13-13-20-39-20z"/><glyph unicode="Ỡ" horiz-adv-x="785" d="M393-10c-68 0-127 15-178 45s-91 72-119 127c-28 54-42 118-42 191 0 74 14 138 42 192s67 96 118 126c51 29 110 44 179 44s128-15 179-44c51-30 90-72 118-126s42-118 42-191c0-74-14-138-42-192-28-55-67-97-118-127S462-10 393-10m0 110c65 0 115 22 151 67s54 107 54 186c0 80-18 142-53 186-36 44-87 66-152 66s-115-22-151-66-54-106-54-186c0-79 18-141 54-186s86-67 151-67m101 541l-44 68c15-1 29-1 40-2s22-2 33-2c35 0 60 8 75 24 14 15 21 37 21 65 0 14 5 25 14 34 9 8 23 12 41 12 17 0 31-5 40-14s14-21 14-36c0-27-6-51-18-74s-29-41-50-54c-22-14-47-21-75-21M208 769c-9 1-17 4-22 11-6 6-8 15-6 27 6 37 20 65 43 86 22 21 48 31 79 31 17 0 33-3 46-10s26-14 38-23c11-9 23-16 35-23 11-7 23-10 36-10 15 0 27 5 37 14s17 19 21 32c6 19 18 28 36 27 9-1 17-4 23-10 5-7 7-16 5-28-6-37-20-65-42-86s-49-31-80-31c-17 0-32 3-45 10-14 7-27 14-39 23s-24 16-35 23-23 10-36 10c-15 0-27-4-37-13s-17-20-21-33c-6-19-18-28-36-27z"/><glyph unicode="Ő" horiz-adv-x="785" d="M393-10c-68 0-127 15-178 45s-91 72-119 127c-28 54-42 118-42 191 0 74 14 138 42 192s67 96 118 126c51 29 110 44 179 44s128-15 179-44c51-30 90-72 118-126s42-118 42-191c0-74-14-138-42-192-28-55-67-97-118-127S462-10 393-10m0 110c65 0 115 22 151 67s54 107 54 186c0 80-18 142-53 186-36 44-87 66-152 66s-115-22-151-66-54-106-54-186c0-79 18-141 54-186s86-67 151-67m112 670c-9-11-18-15-29-14s-20 7-25 17c-6 9-6 20 1 32l66 121c7 14 17 22 30 24 12 2 23 0 34-6 10-6 17-14 20-25s0-24-10-37M360 773c-9-12-19-17-30-16s-20 6-27 15-7 19-1 31l60 122c7 14 17 22 29 25 12 2 24 0 35-5 11-6 18-15 22-26s1-24-9-37z"/><glyph unicode="Ȏ" horiz-adv-x="785" d="M393-10c-68 0-127 15-178 45s-91 72-119 127c-28 54-42 118-42 191 0 74 14 138 42 192s67 96 118 126c51 29 110 44 179 44s128-15 179-44c51-30 90-72 118-126s42-118 42-191c0-74-14-138-42-192-28-55-67-97-118-127S462-10 393-10m0 110c65 0 115 22 151 67s54 107 54 186c0 80-18 142-53 186-36 44-87 66-152 66s-115-22-151-66-54-106-54-186c0-79 18-141 54-186s86-67 151-67M243 760c-9 1-17 6-23 15-7 8-8 19-5 32 11 43 33 76 65 99 31 22 69 33 112 33s81-11 113-33c32-23 53-56 64-99 3-13 2-24-4-32-7-9-15-14-24-15-14-1-24 1-31 8-7 6-11 13-13 21-7 27-20 47-40 59-20 11-42 17-65 17s-44-6-64-17c-20-12-34-32-41-59-2-8-6-15-13-21-7-7-17-9-31-8z"/><glyph unicode="Ō" horiz-adv-x="785" d="M393-10c-68 0-127 15-178 45s-91 72-119 127c-28 54-42 118-42 191 0 74 14 138 42 192s67 96 118 126c51 29 110 44 179 44s128-15 179-44c51-30 90-72 118-126s42-118 42-191c0-74-14-138-42-192-28-55-67-97-118-127S462-10 393-10m0 110c65 0 115 22 151 67s54 107 54 186c0 80-18 142-53 186-36 44-87 66-152 66s-115-22-151-66-54-106-54-186c0-79 18-141 54-186s86-67 151-67M254 806c-26 0-39 12-39 37s13 37 39 37h277c26 0 39-12 39-37s-13-37-39-37z"/><glyph unicode="Ṓ" horiz-adv-x="785" d="M393-10c-68 0-127 15-178 45s-91 72-119 127c-28 54-42 118-42 191 0 74 14 138 42 192s67 96 118 126c51 29 110 44 179 44s128-15 179-44c51-30 90-72 118-126s42-118 42-191c0-74-14-138-42-192-28-55-67-97-118-127S462-10 393-10m0 110c65 0 115 22 151 67s54 107 54 186c0 80-18 142-53 186-36 44-87 66-152 66s-115-22-151-66-54-106-54-186c0-79 18-141 54-186s86-67 151-67m38 793c-9-11-20-15-32-13-12 1-21 7-27 17-6 9-6 20 1 33l49 89c8 14 19 22 32 25 13 2 25 0 36-6 11-7 18-16 22-27 3-11 0-23-11-36M272 783c-28 0-42 12-42 37s14 37 42 37h240c28 0 42-12 42-37s-14-37-42-37z"/><glyph unicode="Ṑ" horiz-adv-x="785" d="M393-10c-68 0-127 15-178 45s-91 72-119 127c-28 54-42 118-42 191 0 74 14 138 42 192s67 96 118 126c51 29 110 44 179 44s128-15 179-44c51-30 90-72 118-126s42-118 42-191c0-74-14-138-42-192-28-55-67-97-118-127S462-10 393-10m0 110c65 0 115 22 151 67s54 107 54 186c0 80-18 142-53 186-36 44-87 66-152 66s-115-22-151-66-54-106-54-186c0-79 18-141 54-186s86-67 151-67m-40 793l-70 82c-11 13-14 25-10 36 3 11 11 20 22 27 11 6 23 8 36 6 13-3 23-11 31-25l49-89c7-13 8-24 2-33-7-10-16-16-27-17-12-2-23 2-33 13m-81-110c-28 0-42 12-42 37s14 37 42 37h240c28 0 42-12 42-37s-14-37-42-37z"/><glyph unicode="Ǫ" horiz-adv-x="785" d="M393-10c-68 0-127 15-178 45s-91 72-119 127c-28 54-42 118-42 191 0 74 14 138 42 192s67 96 118 126c51 29 110 44 179 44s128-15 179-44c51-30 90-72 118-126s42-118 42-191c0-74-14-138-42-192-28-55-67-97-118-127S462-10 393-10m0 110c65 0 115 22 151 67s54 107 54 186c0 80-18 142-53 186-36 44-87 66-152 66s-115-22-151-66-54-106-54-186c0-79 18-141 54-186s86-67 151-67m38-295c-37 0-65 9-86 28s-32 44-32 76c0 28 9 54 28 78s43 42 74 55l37-42c-17-7-31-17-42-30-12-14-18-30-18-47s5-29 16-38 24-13 40-13c10 0 20 1 30 4 16 5 27 3 34-6s9-19 6-30c-3-12-11-21-24-26-11-4-21-6-32-7s-22-2-31-2z"/><glyph unicode="Ø" horiz-adv-x="785" d="M393-10c-68 0-127 15-178 45s-91 72-119 127c-28 54-42 118-42 191 0 74 14 138 42 192s67 96 118 126c51 29 110 44 179 44s128-15 179-44c51-30 90-72 118-126s42-118 42-191c0-74-14-138-42-192-28-55-67-97-118-127S462-10 393-10m0 110c65 0 115 22 151 67s54 107 54 186c0 80-18 142-53 186-36 44-87 66-152 66s-115-22-151-66-54-106-54-186c0-79 18-141 54-186s86-67 151-67M227-29c-8-14-18-22-31-24s-25 0-36 7c-11 6-19 15-23 28s-2 26 7 41l81 135 263 451 26 48 45 77c8 14 18 22 31 24s25 0 36-6c11-7 18-16 23-28 4-12 2-26-7-41l-45-76-36-60L298 97l-26-48z"/><glyph unicode="Ǿ" horiz-adv-x="785" d="M393-10c-68 0-127 15-178 45s-91 72-119 127c-28 54-42 118-42 191 0 74 14 138 42 192s67 96 118 126c51 29 110 44 179 44s128-15 179-44c51-30 90-72 118-126s42-118 42-191c0-74-14-138-42-192-28-55-67-97-118-127S462-10 393-10m0 110c65 0 115 22 151 67s54 107 54 186c0 80-18 142-53 186-36 44-87 66-152 66s-115-22-151-66-54-106-54-186c0-79 18-141 54-186s86-67 151-67M227-29c-8-14-18-22-31-24s-25 0-36 7c-11 6-19 15-23 28s-2 26 7 41l81 135 263 451 26 48 45 77c8 14 18 22 31 24s25 0 36-6c11-7 18-16 23-28 4-12 2-26-7-41l-45-76-36-60L298 97l-26-48m171 722c-8-9-17-13-26-13-10-1-19 2-26 8-8 5-13 12-15 21-3 9-1 18 5 27l78 115c9 14 21 21 34 22s26-3 37-10c11-8 18-18 21-29 3-12-1-24-12-36z"/><glyph unicode="Õ" horiz-adv-x="785" d="M393-10c-68 0-127 15-178 45s-91 72-119 127c-28 54-42 118-42 191 0 74 14 138 42 192s67 96 118 126c51 29 110 44 179 44s128-15 179-44c51-30 90-72 118-126s42-118 42-191c0-74-14-138-42-192-28-55-67-97-118-127S462-10 393-10m0 110c65 0 115 22 151 67s54 107 54 186c0 80-18 142-53 186-36 44-87 66-152 66s-115-22-151-66-54-106-54-186c0-79 18-141 54-186s86-67 151-67M203 769c-11 1-19 4-25 11s-8 16-5 27c8 37 24 66 47 87 23 20 50 30 83 30 19 0 36-3 52-10s31-14 46-23 29-16 43-23c13-7 27-10 40-10 17 0 31 5 42 14 10 9 17 20 20 33 5 19 17 27 35 26 11-1 19-4 25-11s8-16 5-27c-8-37-23-66-45-86-23-21-51-31-84-31-19 0-36 3-52 10-17 7-32 14-47 23s-29 16-42 23c-14 7-28 10-41 10-17 0-30-4-41-13s-18-21-21-34c-5-19-17-27-35-26z"/><glyph unicode="Ṍ" horiz-adv-x="785" d="M393-10c-68 0-127 15-178 45s-91 72-119 127c-28 54-42 118-42 191 0 74 14 138 42 192s67 96 118 126c51 29 110 44 179 44s128-15 179-44c51-30 90-72 118-126s42-118 42-191c0-74-14-138-42-192-28-55-67-97-118-127S462-10 393-10m0 110c65 0 115 22 151 67s54 107 54 186c0 80-18 142-53 186-36 44-87 66-152 66s-115-22-151-66-54-106-54-186c0-79 18-141 54-186s86-67 151-67m38 794c-9-11-20-15-31-14-12 1-21 7-27 17-7 9-7 20 0 33l49 89c8 14 18 22 31 24s25 0 36-7 19-16 22-27c3-12-1-24-12-37M251 765c-9 1-16 4-21 11s-7 15-4 26c7 25 19 43 37 56 17 13 38 19 63 19 18 0 34-4 49-11s29-15 42-22 25-11 38-11c10 0 19 2 27 6 8 3 14 9 17 18 6 15 18 23 35 22 9-1 17-4 22-10 5-7 6-16 3-27-7-25-19-43-36-56-18-13-39-19-64-19-18 0-34 4-49 11s-29 15-42 22-25 11-38 11c-10 0-19-2-27-5-8-4-14-10-17-19-6-15-18-23-35-22z"/><glyph unicode="Ṏ" horiz-adv-x="785" d="M393-10c-68 0-127 15-178 45s-91 72-119 127c-28 54-42 118-42 191 0 74 14 138 42 192s67 96 118 126c51 29 110 44 179 44s128-15 179-44c51-30 90-72 118-126s42-118 42-191c0-74-14-138-42-192-28-55-67-97-118-127S462-10 393-10m0 110c65 0 115 22 151 67s54 107 54 186c0 80-18 142-53 186-36 44-87 66-152 66s-115-22-151-66-54-106-54-186c0-79 18-141 54-186s86-67 151-67m-95 809c-19 0-34 4-45 13-11 8-17 20-17 35s6 27 17 36c11 8 26 12 45 12 41 0 62-16 62-48s-21-48-62-48m189 0c-41 0-62 16-62 48s21 48 62 48 61-16 61-48-20-48-61-48M251 765c-9 1-16 4-21 11s-7 15-4 26c7 25 19 43 37 56 17 13 38 19 63 19 18 0 34-4 49-11s29-15 42-22 25-11 38-11c10 0 19 2 27 6 8 3 14 9 17 18 6 15 18 23 35 22 9-1 17-4 22-10 5-7 6-16 3-27-7-25-19-43-36-56-18-13-39-19-64-19-18 0-34 4-49 11s-29 15-42 22-25 11-38 11c-10 0-19-2-27-5-8-4-14-10-17-19-6-15-18-23-35-22z"/><glyph unicode="Ȭ" horiz-adv-x="785" d="M393-10c-68 0-127 15-178 45s-91 72-119 127c-28 54-42 118-42 191 0 74 14 138 42 192s67 96 118 126c51 29 110 44 179 44s128-15 179-44c51-30 90-72 118-126s42-118 42-191c0-74-14-138-42-192-28-55-67-97-118-127S462-10 393-10m0 110c65 0 115 22 151 67s54 107 54 186c0 80-18 142-53 186-36 44-87 66-152 66s-115-22-151-66-54-106-54-186c0-79 18-141 54-186s86-67 151-67M272 924c-28 0-42 12-42 37s14 37 42 37h240c28 0 42-12 42-37s-14-37-42-37M251 765c-9 1-16 4-21 11s-7 15-4 26c7 25 19 43 37 56 17 13 38 19 63 19 18 0 34-4 49-11s29-15 42-22 25-11 38-11c10 0 19 2 27 6 8 3 14 9 17 18 6 15 18 23 35 22 9-1 17-4 22-10 5-7 6-16 3-27-7-25-19-43-36-56-18-13-39-19-64-19-18 0-34 4-49 11s-29 15-42 22-25 11-38 11c-10 0-19-2-27-5-8-4-14-10-17-19-6-15-18-23-35-22z"/><glyph unicode="Œ" horiz-adv-x="1056" d="M424 0C306 0 215 31 151 92c-65 61-97 148-97 261s32 200 97 261c64 61 155 91 273 91h537c35 0 52-17 52-50 0-35-17-52-52-52H659V409h280c35 0 52-17 52-51s-17-51-52-51H659V102h302c35 0 52-17 52-51S996 0 961 0M432 106h104v493H432c-163 0-244-82-244-246 0-165 81-247 244-247z"/><glyph unicode="P" horiz-adv-x="652" d="M141-8C98-8 77 14 77 58v582c0 43 22 65 65 65h241c77 0 137-19 179-58s63-93 63-162-21-123-63-162-102-59-179-59H205V58c0-44-21-66-64-66m64 373h158c92 0 138 40 138 120 0 79-46 119-138 119H205z"/><glyph unicode="Þ" horiz-adv-x="655" d="M141-3C98-3 77 19 77 63v580c0 43 22 65 66 65 20 0 35-5 46-16s16-25 16-42v-63h180c77 0 137-19 179-58s63-93 63-162-21-123-63-162-102-59-179-59H205V63c0-44-21-66-64-66m64 250h160c92 0 138 40 138 120 0 79-46 119-138 119H205z"/><glyph unicode="Q" horiz-adv-x="785" d="M663-113c11-18 15-34 10-48-5-15-15-25-29-32-15-7-30-9-46-6-17 3-31 14-42 32L487-56c-19 31-50 46-95 46-68 0-127 15-178 45s-90 72-118 127c-28 54-42 118-42 191 0 74 14 138 42 192s67 96 118 126c51 29 110 44 179 44s128-15 179-44c51-30 90-72 118-126s42-118 42-191c0-80-16-149-49-206S604 49 546 22c15-5 28-13 40-24 11-11 23-25 34-43M393 100c65 0 115 22 151 67s54 107 54 186c0 80-18 142-53 186-36 44-87 66-152 66s-115-22-151-66-54-106-54-186c0-79 18-141 54-186s86-67 151-67z"/><glyph unicode="R" horiz-adv-x="686" d="M141-8C98-8 77 14 77 58v582c0 43 22 65 65 65h241c77 0 137-18 179-55s63-89 63-156c0-53-14-96-41-130-27-35-67-58-118-70 34-11 62-36 84-77l75-139c11-21 14-41 7-59S607-8 580-8c-18 0-33 4-44 12-11 7-21 19-30 35L405 225c-12 23-26 38-42 46-17 7-38 11-63 11h-95V58c0-44-21-66-64-66m64 385h156c93 0 140 38 140 114 0 75-47 113-140 113H205z"/><glyph unicode="Ŕ" horiz-adv-x="686" d="M141-8C98-8 77 14 77 58v582c0 43 22 65 65 65h241c77 0 137-18 179-55s63-89 63-156c0-53-14-96-41-130-27-35-67-58-118-70 34-11 62-36 84-77l75-139c11-21 14-41 7-59S607-8 580-8c-18 0-33 4-44 12-11 7-21 19-30 35L405 225c-12 23-26 38-42 46-17 7-38 11-63 11h-95V58c0-44-21-66-64-66m64 385h156c93 0 140 38 140 114 0 75-47 113-140 113H205m194 167c-8-9-17-13-26-13-10-1-19 2-26 8-8 5-13 12-15 21-3 9-1 18 5 27l78 115c9 14 21 21 34 22s26-3 37-10c11-8 18-18 21-29 3-12-1-24-12-36z"/><glyph unicode="Ř" horiz-adv-x="686" d="M141-8C98-8 77 14 77 58v582c0 43 22 65 65 65h241c77 0 137-18 179-55s63-89 63-156c0-53-14-96-41-130-27-35-67-58-118-70 34-11 62-36 84-77l75-139c11-21 14-41 7-59S607-8 580-8c-18 0-33 4-44 12-11 7-21 19-30 35L405 225c-12 23-26 38-42 46-17 7-38 11-63 11h-95V58c0-44-21-66-64-66m64 385h156c93 0 140 38 140 114 0 75-47 113-140 113H205m143 150c-31 0-55 13-73 39l-73 102c-7 9-9 18-6 27 2 9 7 16 15 21s17 7 27 6c9-1 18-7 26-16l84-98 85 98c11 13 23 18 36 16s22-8 29-18c7-11 5-23-4-36l-72-102c-18-26-43-39-74-39z"/><glyph unicode="Ŗ" horiz-adv-x="686" d="M141-8C98-8 77 14 77 58v582c0 43 22 65 65 65h241c77 0 137-18 179-55s63-89 63-156c0-53-14-96-41-130-27-35-67-58-118-70 34-11 62-36 84-77l75-139c11-21 14-41 7-59S607-8 580-8c-18 0-33 4-44 12-11 7-21 19-30 35L405 225c-12 23-26 38-42 46-17 7-38 11-63 11h-95V58c0-44-21-66-64-66m64 385h156c93 0 140 38 140 114 0 75-47 113-140 113H205m170-864c-9-11-18-15-29-14s-19 7-24 16-3 20 6 33c8 12 14 26 17 41-43 2-64 22-64 59 0 39 22 58 67 58s68-23 68-69c0-21-3-42-10-64-7-23-17-43-31-60z"/><glyph unicode="Ȑ" horiz-adv-x="686" d="M141-8C98-8 77 14 77 58v582c0 43 22 65 65 65h241c77 0 137-18 179-55s63-89 63-156c0-53-14-96-41-130-27-35-67-58-118-70 34-11 62-36 84-77l75-139c11-21 14-41 7-59S607-8 580-8c-18 0-33 4-44 12-11 7-21 19-30 35L405 225c-12 23-26 38-42 46-17 7-38 11-63 11h-95V58c0-44-21-66-64-66m64 385h156c93 0 140 38 140 114 0 75-47 113-140 113H205m31 166l-87 112c-10 13-13 26-10 37s10 19 21 26c10 6 21 8 34 6 12-3 22-11 29-25l65-121c7-12 7-23 1-32s-14-15-24-16c-11-2-20 2-29 13m144 3l-79 109c-10 13-13 26-9 37s12 20 23 26c11 5 22 7 35 5 12-3 21-11 28-25l61-122c6-12 6-22-1-31s-16-14-27-15c-12-1-22 4-31 16z"/><glyph unicode="Ṛ" horiz-adv-x="686" d="M141-8C98-8 77 14 77 58v582c0 43 22 65 65 65h241c77 0 137-18 179-55s63-89 63-156c0-53-14-96-41-130-27-35-67-58-118-70 34-11 62-36 84-77l75-139c11-21 14-41 7-59S607-8 580-8c-18 0-33 4-44 12-11 7-21 19-30 35L405 225c-12 23-26 38-42 46-17 7-38 11-63 11h-95V58c0-44-21-66-64-66m64 385h156c93 0 140 38 140 114 0 75-47 113-140 113H205m144-813c-43 0-65 21-65 63 0 41 22 62 65 62 44 0 66-21 66-62 0-42-22-63-66-63z"/><glyph unicode="Ȓ" horiz-adv-x="686" d="M141-8C98-8 77 14 77 58v582c0 43 22 65 65 65h241c77 0 137-18 179-55s63-89 63-156c0-53-14-96-41-130-27-35-67-58-118-70 34-11 62-36 84-77l75-139c11-21 14-41 7-59S607-8 580-8c-18 0-33 4-44 12-11 7-21 19-30 35L405 225c-12 23-26 38-42 46-17 7-38 11-63 11h-95V58c0-44-21-66-64-66m64 385h156c93 0 140 38 140 114 0 75-47 113-140 113H205m-6 156c-9 1-17 6-23 15-7 8-8 19-5 32 11 43 33 76 65 99 31 22 69 33 112 33s81-11 113-33c32-23 53-56 64-99 3-13 2-24-4-32-7-9-15-14-24-15-14-1-24 1-31 8-7 6-11 13-13 21-7 27-20 47-40 59-20 11-42 17-65 17s-44-6-64-17c-20-12-34-32-41-59-2-8-6-15-13-21-7-7-17-9-31-8z"/><glyph unicode="Ṟ" horiz-adv-x="686" d="M141-8C98-8 77 14 77 58v582c0 43 22 65 65 65h241c77 0 137-18 179-55s63-89 63-156c0-53-14-96-41-130-27-35-67-58-118-70 34-11 62-36 84-77l75-139c11-21 14-41 7-59S607-8 580-8c-18 0-33 4-44 12-11 7-21 19-30 35L405 225c-12 23-26 38-42 46-17 7-38 11-63 11h-95V58c0-44-21-66-64-66m64 385h156c93 0 140 38 140 114 0 75-47 113-140 113H205m21-769c-26 0-39 12-39 37s13 37 39 37h247c26 0 39-12 39-37s-13-37-39-37z"/><glyph unicode="S" horiz-adv-x="631" d="M320-10c-45 0-88 5-130 15-43 10-80 25-111 45-15 10-25 22-28 37s-2 29 4 42c5 13 14 22 27 27 12 5 26 2 42-8 29-17 60-30 93-38s67-12 103-12c53 0 91 9 115 27 24 17 36 40 36 68 0 23-8 42-25 55s-47 24-88 33l-110 23C123 331 60 395 60 497c0 44 12 82 35 115s56 58 97 76 89 27 143 27c40 0 78-5 114-15s68-25 97-44c13-9 21-21 24-34 3-14 1-27-5-38-6-12-15-20-28-24-13-5-29-2-46 8-25 14-50 24-75 30s-53 9-82 9c-46 0-82-10-108-29s-39-45-39-76c0-24 8-43 24-57 16-15 43-26 82-34l109-23c66-14 115-36 148-66 32-30 48-70 48-120 0-42-11-79-34-111s-55-57-96-74c-42-18-91-27-148-27z"/><glyph unicode="Ś" horiz-adv-x="631" d="M320-10c-45 0-88 5-130 15-43 10-80 25-111 45-15 10-25 22-28 37s-2 29 4 42c5 13 14 22 27 27 12 5 26 2 42-8 29-17 60-30 93-38s67-12 103-12c53 0 91 9 115 27 24 17 36 40 36 68 0 23-8 42-25 55s-47 24-88 33l-110 23C123 331 60 395 60 497c0 44 12 82 35 115s56 58 97 76 89 27 143 27c40 0 78-5 114-15s68-25 97-44c13-9 21-21 24-34 3-14 1-27-5-38-6-12-15-20-28-24-13-5-29-2-46 8-25 14-50 24-75 30s-53 9-82 9c-46 0-82-10-108-29s-39-45-39-76c0-24 8-43 24-57 16-15 43-26 82-34l109-23c66-14 115-36 148-66 32-30 48-70 48-120 0-42-11-79-34-111s-55-57-96-74c-42-18-91-27-148-27m56 781c-8-9-17-13-26-13-10-1-19 2-26 8-8 5-13 12-15 21-3 9-1 18 5 27l78 115c9 14 21 21 34 22s26-3 37-10c11-8 18-18 21-29 3-12-1-24-12-36z"/><glyph unicode="Ṥ" horiz-adv-x="631" d="M320-10c-45 0-88 5-130 15-43 10-80 25-111 45-15 10-25 22-28 37s-2 29 4 42c5 13 14 22 27 27 12 5 26 2 42-8 29-17 60-30 93-38s67-12 103-12c53 0 91 9 115 27 24 17 36 40 36 68 0 23-8 42-25 55s-47 24-88 33l-110 23C123 331 60 395 60 497c0 44 12 82 35 115s56 58 97 76 89 27 143 27c40 0 78-5 114-15s68-25 97-44c13-9 21-21 24-34 3-14 1-27-5-38-6-12-15-20-28-24-13-5-29-2-46 8-25 14-50 24-75 30s-53 9-82 9c-46 0-82-10-108-29s-39-45-39-76c0-24 8-43 24-57 16-15 43-26 82-34l109-23c66-14 115-36 148-66 32-30 48-70 48-120 0-42-11-79-34-111s-55-57-96-74c-42-18-91-27-148-27m-51 939c-42 0-63 16-63 49 0 32 21 48 63 48 41 0 61-16 61-48 0-33-20-49-61-49m107-157c-11-12-22-17-35-14s-23 10-29 21c-7 11-6 23 3 36l78 116c11 15 23 24 37 25 13 1 25-2 36-9 11-8 18-18 21-31s-2-25-13-37z"/><glyph unicode="Š" horiz-adv-x="631" d="M320-10c-45 0-88 5-130 15-43 10-80 25-111 45-15 10-25 22-28 37s-2 29 4 42c5 13 14 22 27 27 12 5 26 2 42-8 29-17 60-30 93-38s67-12 103-12c53 0 91 9 115 27 24 17 36 40 36 68 0 23-8 42-25 55s-47 24-88 33l-110 23C123 331 60 395 60 497c0 44 12 82 35 115s56 58 97 76 89 27 143 27c40 0 78-5 114-15s68-25 97-44c13-9 21-21 24-34 3-14 1-27-5-38-6-12-15-20-28-24-13-5-29-2-46 8-25 14-50 24-75 30s-53 9-82 9c-46 0-82-10-108-29s-39-45-39-76c0-24 8-43 24-57 16-15 43-26 82-34l109-23c66-14 115-36 148-66 32-30 48-70 48-120 0-42-11-79-34-111s-55-57-96-74c-42-18-91-27-148-27m5 764c-31 0-55 13-73 39l-73 102c-7 9-9 18-6 27 2 9 7 16 15 21s17 7 27 6c9-1 18-7 26-16l84-98 85 98c11 13 23 18 36 16s22-8 29-18c7-11 5-23-4-36l-72-102c-18-26-43-39-74-39z"/><glyph unicode="Ṧ" horiz-adv-x="631" d="M320-10c-45 0-88 5-130 15-43 10-80 25-111 45-15 10-25 22-28 37s-2 29 4 42c5 13 14 22 27 27 12 5 26 2 42-8 29-17 60-30 93-38s67-12 103-12c53 0 91 9 115 27 24 17 36 40 36 68 0 23-8 42-25 55s-47 24-88 33l-110 23C123 331 60 395 60 497c0 44 12 82 35 115s56 58 97 76 89 27 143 27c40 0 78-5 114-15s68-25 97-44c13-9 21-21 24-34 3-14 1-27-5-38-6-12-15-20-28-24-13-5-29-2-46 8-25 14-50 24-75 30s-53 9-82 9c-46 0-82-10-108-29s-39-45-39-76c0-24 8-43 24-57 16-15 43-26 82-34l109-23c66-14 115-36 148-66 32-30 48-70 48-120 0-42-11-79-34-111s-55-57-96-74c-42-18-91-27-148-27m6 968c-19 0-34 4-45 13s-17 21-17 36 6 27 17 36c11 8 26 12 45 12 41 0 62-16 62-48 0-33-21-49-62-49m-1-203c-15 0-29 3-40 8-12 5-23 15-33 29l-71 102c-7 10-8 20-3 30 5 9 12 16 23 19s21-1 30-11l94-98 95 98c10 10 20 14 30 11s18-10 23-19c5-10 3-20-4-30l-70-102c-9-14-20-24-32-29-13-5-27-8-42-8z"/><glyph unicode="Ş" horiz-adv-x="631" d="M320-10c-45 0-88 5-130 15-43 10-80 25-111 45-15 10-25 22-28 37s-2 29 4 42c5 13 14 22 27 27 12 5 26 2 42-8 29-17 60-30 93-38s67-12 103-12c53 0 91 9 115 27 24 17 36 40 36 68 0 23-8 42-25 55s-47 24-88 33l-110 23C123 331 60 395 60 497c0 44 12 82 35 115s56 58 97 76 89 27 143 27c40 0 78-5 114-15s68-25 97-44c13-9 21-21 24-34 3-14 1-27-5-38-6-12-15-20-28-24-13-5-29-2-46 8-25 14-50 24-75 30s-53 9-82 9c-46 0-82-10-108-29s-39-45-39-76c0-24 8-43 24-57 16-15 43-26 82-34l109-23c66-14 115-36 148-66 32-30 48-70 48-120 0-42-11-79-34-111s-55-57-96-74c-42-18-91-27-148-27m4-185c-13 0-26 1-40 3-14 1-27 4-38 8-13 5-21 13-23 24s1 21 9 29c7 8 18 9 31 4 15-5 32-8 51-8 36 0 54 10 54 30 0 15-12 23-37 23h-14c-5-1-11-2-16-3-9-3-17-2-23 3-5 5-7 13-5 26l11 76h67l-10-58c4 1 8 1 11 1 27 0 49-6 66-19s25-30 25-53c0-26-11-47-33-62-22-16-51-24-86-24z"/><glyph unicode="Ŝ" horiz-adv-x="631" d="M320-10c-45 0-88 5-130 15-43 10-80 25-111 45-15 10-25 22-28 37s-2 29 4 42c5 13 14 22 27 27 12 5 26 2 42-8 29-17 60-30 93-38s67-12 103-12c53 0 91 9 115 27 24 17 36 40 36 68 0 23-8 42-25 55s-47 24-88 33l-110 23C123 331 60 395 60 497c0 44 12 82 35 115s56 58 97 76 89 27 143 27c40 0 78-5 114-15s68-25 97-44c13-9 21-21 24-34 3-14 1-27-5-38-6-12-15-20-28-24-13-5-29-2-46 8-25 14-50 24-75 30s-53 9-82 9c-46 0-82-10-108-29s-39-45-39-76c0-24 8-43 24-57 16-15 43-26 82-34l109-23c66-14 115-36 148-66 32-30 48-70 48-120 0-42-11-79-34-111s-55-57-96-74c-42-18-91-27-148-27m-79 781c-11-11-23-16-36-14s-23 8-29 19c-7 10-6 21 3 34l73 101c18 27 42 40 73 40 30 0 55-13 74-40l72-101c9-13 11-24 5-34-7-11-16-17-29-19s-26 3-37 14l-85 98z"/><glyph unicode="Ș" horiz-adv-x="631" d="M320-10c-45 0-88 5-130 15-43 10-80 25-111 45-15 10-25 22-28 37s-2 29 4 42c5 13 14 22 27 27 12 5 26 2 42-8 29-17 60-30 93-38s67-12 103-12c53 0 91 9 115 27 24 17 36 40 36 68 0 23-8 42-25 55s-47 24-88 33l-110 23C123 331 60 395 60 497c0 44 12 82 35 115s56 58 97 76 89 27 143 27c40 0 78-5 114-15s68-25 97-44c13-9 21-21 24-34 3-14 1-27-5-38-6-12-15-20-28-24-13-5-29-2-46 8-25 14-50 24-75 30s-53 9-82 9c-46 0-82-10-108-29s-39-45-39-76c0-24 8-43 24-57 16-15 43-26 82-34l109-23c66-14 115-36 148-66 32-30 48-70 48-120 0-42-11-79-34-111s-55-57-96-74c-42-18-91-27-148-27m29-250c-9-11-18-15-29-14s-19 7-24 16-3 20 6 33c8 12 14 26 17 41-43 2-64 22-64 59 0 39 22 58 67 58s68-23 68-69c0-21-3-42-10-64-7-23-17-43-31-60z"/><glyph unicode="Ṡ" horiz-adv-x="631" d="M320-10c-45 0-88 5-130 15-43 10-80 25-111 45-15 10-25 22-28 37s-2 29 4 42c5 13 14 22 27 27 12 5 26 2 42-8 29-17 60-30 93-38s67-12 103-12c53 0 91 9 115 27 24 17 36 40 36 68 0 23-8 42-25 55s-47 24-88 33l-110 23C123 331 60 395 60 497c0 44 12 82 35 115s56 58 97 76 89 27 143 27c40 0 78-5 114-15s68-25 97-44c13-9 21-21 24-34 3-14 1-27-5-38-6-12-15-20-28-24-13-5-29-2-46 8-25 14-50 24-75 30s-53 9-82 9c-46 0-82-10-108-29s-39-45-39-76c0-24 8-43 24-57 16-15 43-26 82-34l109-23c66-14 115-36 148-66 32-30 48-70 48-120 0-42-11-79-34-111s-55-57-96-74c-42-18-91-27-148-27m5 799c-43 0-65 21-65 63 0 41 22 62 65 62s65-21 65-62c0-42-22-63-65-63z"/><glyph unicode="Ṣ" horiz-adv-x="631" d="M320-10c-45 0-88 5-130 15-43 10-80 25-111 45-15 10-25 22-28 37s-2 29 4 42c5 13 14 22 27 27 12 5 26 2 42-8 29-17 60-30 93-38s67-12 103-12c53 0 91 9 115 27 24 17 36 40 36 68 0 23-8 42-25 55s-47 24-88 33l-110 23C123 331 60 395 60 497c0 44 12 82 35 115s56 58 97 76 89 27 143 27c40 0 78-5 114-15s68-25 97-44c13-9 21-21 24-34 3-14 1-27-5-38-6-12-15-20-28-24-13-5-29-2-46 8-25 14-50 24-75 30s-53 9-82 9c-46 0-82-10-108-29s-39-45-39-76c0-24 8-43 24-57 16-15 43-26 82-34l109-23c66-14 115-36 148-66 32-30 48-70 48-120 0-42-11-79-34-111s-55-57-96-74c-42-18-91-27-148-27m3-199c-43 0-65 21-65 63 0 41 22 62 65 62 44 0 66-21 66-62 0-42-22-63-66-63z"/><glyph unicode="Ṩ" horiz-adv-x="631" d="M320-10c-45 0-88 5-130 15-43 10-80 25-111 45-15 10-25 22-28 37s-2 29 4 42c5 13 14 22 27 27 12 5 26 2 42-8 29-17 60-30 93-38s67-12 103-12c53 0 91 9 115 27 24 17 36 40 36 68 0 23-8 42-25 55s-47 24-88 33l-110 23C123 331 60 395 60 497c0 44 12 82 35 115s56 58 97 76 89 27 143 27c40 0 78-5 114-15s68-25 97-44c13-9 21-21 24-34 3-14 1-27-5-38-6-12-15-20-28-24-13-5-29-2-46 8-25 14-50 24-75 30s-53 9-82 9c-46 0-82-10-108-29s-39-45-39-76c0-24 8-43 24-57 16-15 43-26 82-34l109-23c66-14 115-36 148-66 32-30 48-70 48-120 0-42-11-79-34-111s-55-57-96-74c-42-18-91-27-148-27m3-199c-43 0-65 21-65 63 0 41 22 62 65 62 44 0 66-21 66-62 0-42-22-63-66-63m2 998c-43 0-65 21-65 63 0 41 22 62 65 62s65-21 65-62c0-42-22-63-65-63z"/><glyph unicode="ẞ" horiz-adv-x="730" d="M452-10c-67 0-123 13-166 40-14 9-22 20-25 33s-1 25 5 37c5 12 14 21 25 26s22 3 35-4c19-11 38-18 56-22 18-5 37-7 57-7 37 0 66 10 86 29 19 19 29 44 29 77 0 69-46 104-137 104h-72c-15 0-27 4-36 13-10 9-15 21-15 38s4 29 13 37 20 12 33 12h58c37 0 66 9 87 27s32 44 32 77c0 69-46 104-139 104-115 0-173-54-173-162V58c0-44-21-66-64-66S77 14 77 58v392c0 87 27 153 80 198s129 67 227 67c79 0 142-17 188-51s69-80 69-139c0-36-8-68-25-95-17-28-40-49-71-64 41-11 73-31 97-61 24-31 36-69 36-114 0-63-20-113-59-148-40-35-96-53-167-53z"/><glyph unicode="Ə" horiz-adv-x="785" d="M400-10c-76 0-140 16-191 47s-90 75-116 131c-26 55-39 120-39 193 0 30 14 45 41 45h500c-9 65-33 114-74 148s-96 51-166 51c-68 0-129-14-184-43-18-9-34-12-47-7-14 5-24 13-30 26s-7 26-3 41c3 14 13 25 28 34 68 39 152 59 251 59 73 0 137-15 191-44s96-71 126-125 45-119 45-194c0-74-14-138-42-192S623 64 574 35C524 5 466-10 400-10m-6 106c57 0 104 18 139 53s55 86 62 153H188c13-137 82-206 206-206z"/><glyph unicode="T" horiz-adv-x="621" d="M311-8c-43 0-64 22-64 66v540H52c-37 0-55 18-55 54 0 35 18 53 55 53h518c37 0 55-18 55-53 0-36-18-54-55-54H375V58c0-44-21-66-64-66z"/><glyph unicode="Ŧ" horiz-adv-x="621" d="M311-8c-43 0-64 22-64 66v540H52c-37 0-55 18-55 54 0 35 18 53 55 53h518c37 0 55-18 55-53 0-36-18-54-55-54H375V58c0-44-21-66-64-66M149 310c-33 0-49 16-49 47s16 47 49 47h323c33 0 49-16 49-47s-16-47-49-47z"/><glyph unicode="Ť" horiz-adv-x="621" d="M311-8c-43 0-64 22-64 66v540H52c-37 0-55 18-55 54 0 35 18 53 55 53h518c37 0 55-18 55-53 0-36-18-54-55-54H375V58c0-44-21-66-64-66m0 762c-31 0-55 13-73 39l-73 102c-7 9-9 18-6 27 2 9 7 16 15 21s17 7 27 6c9-1 18-7 26-16l84-98 85 98c11 13 23 18 36 16s22-8 29-18c7-11 5-23-4-36l-72-102c-18-26-43-39-74-39z"/><glyph unicode="Ţ" horiz-adv-x="621" d="M311-8c-43 0-64 22-64 66v540H52c-37 0-55 18-55 54 0 35 18 53 55 53h518c37 0 55-18 55-53 0-36-18-54-55-54H375V58c0-44-21-66-64-66m1-187c-13 0-26 1-40 3-14 1-27 4-38 8-13 5-21 13-23 24s1 21 9 29c7 8 18 9 31 4 15-5 32-8 51-8 36 0 54 10 54 30 0 15-12 23-37 23h-14c-5-1-11-2-16-3-9-3-17-2-23 3-5 5-7 13-5 26l11 76h67l-10-58c4 1 8 1 11 1 27 0 49-6 66-19s25-30 25-53c0-26-11-47-33-62-22-16-51-24-86-24z"/><glyph unicode="Ț" horiz-adv-x="621" d="M311-8c-43 0-64 22-64 66v540H52c-37 0-55 18-55 54 0 35 18 53 55 53h518c37 0 55-18 55-53 0-36-18-54-55-54H375V58c0-44-21-66-64-66m26-252c-9-11-18-15-29-14s-19 7-24 16-3 20 6 33c8 12 14 26 17 41-43 2-64 22-64 59 0 39 22 58 67 58s68-23 68-69c0-21-3-42-10-64-7-23-17-43-31-60z"/><glyph unicode="Ṭ" horiz-adv-x="621" d="M311-8c-43 0-64 22-64 66v540H52c-37 0-55 18-55 54 0 35 18 53 55 53h518c37 0 55-18 55-53 0-36-18-54-55-54H375V58c0-44-21-66-64-66m0-201c-43 0-65 21-65 63 0 41 22 62 65 62 44 0 66-21 66-62 0-42-22-63-66-63z"/><glyph unicode="Ṯ" horiz-adv-x="621" d="M311-8c-43 0-64 22-64 66v540H52c-37 0-55 18-55 54 0 35 18 53 55 53h518c37 0 55-18 55-53 0-36-18-54-55-54H375V58c0-44-21-66-64-66M188-165c-26 0-39 12-39 37s13 37 39 37h247c26 0 39-12 39-37s-13-37-39-37z"/><glyph unicode="U" horiz-adv-x="738" d="M370-10c-97 0-170 25-221 76-51 50-77 124-77 223v359c0 43 21 65 64 65s64-22 64-65V290c0-63 15-111 44-142 29-32 71-48 126-48 113 0 169 63 169 190v358c0 43 21 65 64 65 42 0 63-22 63-65V289c0-99-25-173-75-223-50-51-124-76-221-76z"/><glyph unicode="Ú" horiz-adv-x="738" d="M370-10c-97 0-170 25-221 76-51 50-77 124-77 223v359c0 43 21 65 64 65s64-22 64-65V290c0-63 15-111 44-142 29-32 71-48 126-48 113 0 169 63 169 190v358c0 43 21 65 64 65 42 0 63-22 63-65V289c0-99-25-173-75-223-50-51-124-76-221-76m51 781c-8-9-17-13-26-13-10-1-19 2-26 8-8 5-13 12-15 21-3 9-1 18 5 27l78 115c9 14 21 21 34 22s26-3 37-10c11-8 18-18 21-29 3-12-1-24-12-36z"/><glyph unicode="Ŭ" horiz-adv-x="738" d="M370-10c-97 0-170 25-221 76-51 50-77 124-77 223v359c0 43 21 65 64 65s64-22 64-65V290c0-63 15-111 44-142 29-32 71-48 126-48 113 0 169 63 169 190v358c0 43 21 65 64 65 42 0 63-22 63-65V289c0-99-25-173-75-223-50-51-124-76-221-76m0 770c-43 0-81 12-112 35-32 23-54 55-65 98-3 13-2 24 5 33 6 9 14 13 23 14 14 1 24-1 31-7 7-7 11-14 13-22 7-27 20-47 41-58 20-12 41-18 64-18s45 6 65 18c20 11 33 31 40 58 2 8 6 15 13 22 7 6 17 8 31 7 9-1 17-5 24-14 6-9 7-20 4-33-11-43-32-75-64-98s-70-35-113-35z"/><glyph unicode="Û" horiz-adv-x="738" d="M370-10c-97 0-170 25-221 76-51 50-77 124-77 223v359c0 43 21 65 64 65s64-22 64-65V290c0-63 15-111 44-142 29-32 71-48 126-48 113 0 169 63 169 190v358c0 43 21 65 64 65 42 0 63-22 63-65V289c0-99-25-173-75-223-50-51-124-76-221-76m-84 781c-11-11-23-16-36-14s-23 8-29 19c-7 10-6 21 3 34l73 101c18 27 42 40 73 40 30 0 55-13 74-40l72-101c9-13 11-24 5-34-7-11-16-17-29-19s-26 3-37 14l-85 98z"/><glyph unicode="Ȕ" horiz-adv-x="738" d="M370-10c-97 0-170 25-221 76-51 50-77 124-77 223v359c0 43 21 65 64 65s64-22 64-65V290c0-63 15-111 44-142 29-32 71-48 126-48 113 0 169 63 169 190v358c0 43 21 65 64 65 42 0 63-22 63-65V289c0-99-25-173-75-223-50-51-124-76-221-76M258 770l-87 112c-10 13-13 26-10 37s10 19 21 26c10 6 21 8 34 6 12-3 22-11 29-25l65-121c7-12 7-23 1-32s-14-15-24-16c-11-2-20 2-29 13m144 3l-79 109c-10 13-13 26-9 37s12 20 23 26c11 5 22 7 35 5 12-3 21-11 28-25l61-122c6-12 6-22-1-31s-16-14-27-15c-12-1-22 4-31 16z"/><glyph unicode="Ü" horiz-adv-x="738" d="M370-10c-97 0-170 25-221 76-51 50-77 124-77 223v359c0 43 21 65 64 65s64-22 64-65V290c0-63 15-111 44-142 29-32 71-48 126-48 113 0 169 63 169 190v358c0 43 21 65 64 65 42 0 63-22 63-65V289c0-99-25-173-75-223-50-51-124-76-221-76m95 796c-41 0-62 21-62 62s21 61 62 61 61-20 61-61-20-62-61-62m-189 0c-19 0-34 5-45 16s-17 26-17 46c0 19 6 34 17 45s26 16 45 16c41 0 62-20 62-61s-21-62-62-62z"/><glyph unicode="Ụ" horiz-adv-x="738" d="M370-10c-97 0-170 25-221 76-51 50-77 124-77 223v359c0 43 21 65 64 65s64-22 64-65V290c0-63 15-111 44-142 29-32 71-48 126-48 113 0 169 63 169 190v358c0 43 21 65 64 65 42 0 63-22 63-65V289c0-99-25-173-75-223-50-51-124-76-221-76m0-199c-43 0-65 21-65 63 0 41 22 62 65 62 44 0 66-21 66-62 0-42-22-63-66-63z"/><glyph unicode="Ù" horiz-adv-x="738" d="M370-10c-97 0-170 25-221 76-51 50-77 124-77 223v359c0 43 21 65 64 65s64-22 64-65V290c0-63 15-111 44-142 29-32 71-48 126-48 113 0 169 63 169 190v358c0 43 21 65 64 65 42 0 63-22 63-65V289c0-99-25-173-75-223-50-51-124-76-221-76m-50 781l-96 105c-11 12-14 24-11 36 3 11 10 21 21 29 11 7 23 11 36 10s25-8 34-22l78-115c6-9 8-18 6-27-3-9-8-16-15-21-8-6-17-9-26-8-10 0-19 4-27 13z"/><glyph unicode="Ủ" horiz-adv-x="738" d="M370-10c-97 0-170 25-221 76-51 50-77 124-77 223v359c0 43 21 65 64 65s64-22 64-65V290c0-63 15-111 44-142 29-32 71-48 126-48 113 0 169 63 169 190v358c0 43 21 65 64 65 42 0 63-22 63-65V289c0-99-25-173-75-223-50-51-124-76-221-76m0 767c-25 0-38 9-38 26 0 16 5 28 14 37 9 8 19 15 28 22s14 14 14 23c0 13-13 20-40 20-5 0-10 0-16-1-7-1-13-2-19-3-23-5-37 0-42 15-3 8-2 16 1 23s9 12 20 15c11 4 25 7 40 9s30 3 46 3c33 0 58-6 77-17s28-27 28-46c0-15-4-26-11-35s-16-16-26-22c-10-7-19-13-26-20s-11-17-11-29c0-13-13-20-39-20z"/><glyph unicode="Ư" horiz-adv-x="738" d="M370-10c-97 0-170 25-221 76-51 50-77 124-77 223v359c0 43 21 65 64 65s64-22 64-65V290c0-63 15-111 44-142 29-32 71-48 126-48 113 0 169 63 169 190v358c0 43 21 65 64 65 42 0 63-22 63-65V289c0-99-25-173-75-223-50-51-124-76-221-76m274 651l-71 45v19c35 0 60 7 75 22s22 38 22 70c0 29 18 43 55 43s55-14 55-43c0-44-12-80-36-108-25-28-58-44-100-48z"/><glyph unicode="Ứ" horiz-adv-x="738" d="M370-10c-97 0-170 25-221 76-51 50-77 124-77 223v359c0 43 21 65 64 65s64-22 64-65V290c0-63 15-111 44-142 29-32 71-48 126-48 113 0 169 63 169 190v358c0 43 21 65 64 65 42 0 63-22 63-65V289c0-99-25-173-75-223-50-51-124-76-221-76m274 651l-71 45v19c35 0 60 7 75 22s22 38 22 70c0 29 18 43 55 43s55-14 55-43c0-44-12-80-36-108-25-28-58-44-100-48M421 771c-8-9-17-13-26-13-10-1-19 2-26 8-8 5-13 12-15 21-3 9-1 18 5 27l78 115c9 14 21 21 34 22s26-3 37-10c11-8 18-18 21-29 3-12-1-24-12-36z"/><glyph unicode="Ự" horiz-adv-x="738" d="M370-10c-97 0-170 25-221 76-51 50-77 124-77 223v359c0 43 21 65 64 65s64-22 64-65V290c0-63 15-111 44-142 29-32 71-48 126-48 113 0 169 63 169 190v358c0 43 21 65 64 65 42 0 63-22 63-65V289c0-99-25-173-75-223-50-51-124-76-221-76m274 651l-71 45v19c35 0 60 7 75 22s22 38 22 70c0 29 18 43 55 43s55-14 55-43c0-44-12-80-36-108-25-28-58-44-100-48M370-209c-43 0-65 21-65 63 0 41 22 62 65 62 44 0 66-21 66-62 0-42-22-63-66-63z"/><glyph unicode="Ừ" horiz-adv-x="738" d="M370-10c-97 0-170 25-221 76-51 50-77 124-77 223v359c0 43 21 65 64 65s64-22 64-65V290c0-63 15-111 44-142 29-32 71-48 126-48 113 0 169 63 169 190v358c0 43 21 65 64 65 42 0 63-22 63-65V289c0-99-25-173-75-223-50-51-124-76-221-76m274 651l-71 45v19c35 0 60 7 75 22s22 38 22 70c0 29 18 43 55 43s55-14 55-43c0-44-12-80-36-108-25-28-58-44-100-48M320 771l-96 105c-11 12-14 24-11 36 3 11 10 21 21 29 11 7 23 11 36 10s25-8 34-22l78-115c6-9 8-18 6-27-3-9-8-16-15-21-8-6-17-9-26-8-10 0-19 4-27 13z"/><glyph unicode="Ử" horiz-adv-x="738" d="M370-10c-97 0-170 25-221 76-51 50-77 124-77 223v359c0 43 21 65 64 65s64-22 64-65V290c0-63 15-111 44-142 29-32 71-48 126-48 113 0 169 63 169 190v358c0 43 21 65 64 65 42 0 63-22 63-65V289c0-99-25-173-75-223-50-51-124-76-221-76m274 651l-71 45v19c35 0 60 7 75 22s22 38 22 70c0 29 18 43 55 43s55-14 55-43c0-44-12-80-36-108-25-28-58-44-100-48M370 757c-25 0-38 9-38 26 0 16 5 28 14 37 9 8 19 15 28 22s14 14 14 23c0 13-13 20-40 20-5 0-10 0-16-1-7-1-13-2-19-3-23-5-37 0-42 15-3 8-2 16 1 23s9 12 20 15c11 4 25 7 40 9s30 3 46 3c33 0 58-6 77-17s28-27 28-46c0-15-4-26-11-35s-16-16-26-22c-10-7-19-13-26-20s-11-17-11-29c0-13-13-20-39-20z"/><glyph unicode="Ữ" horiz-adv-x="738" d="M370-10c-97 0-170 25-221 76-51 50-77 124-77 223v359c0 43 21 65 64 65s64-22 64-65V290c0-63 15-111 44-142 29-32 71-48 126-48 113 0 169 63 169 190v358c0 43 21 65 64 65 42 0 63-22 63-65V289c0-99-25-173-75-223-50-51-124-76-221-76m274 651l-71 45v19c35 0 60 7 75 22s22 38 22 70c0 29 18 43 55 43s55-14 55-43c0-44-12-80-36-108-25-28-58-44-100-48M189 769c-9 1-17 4-22 11-6 6-8 15-6 27 6 37 20 65 43 86 22 21 48 31 79 31 17 0 33-3 46-10s26-14 38-23c11-9 23-16 35-23 11-7 23-10 36-10 15 0 27 5 37 14s17 19 21 32c6 19 18 28 36 27 9-1 17-4 23-10 5-7 7-16 5-28-6-37-20-65-42-86s-49-31-80-31c-17 0-32 3-45 10-14 7-27 14-39 23s-24 16-35 23-23 10-36 10c-15 0-27-4-37-13s-17-20-21-33c-6-19-18-28-36-27z"/><glyph unicode="Ű" horiz-adv-x="738" d="M370-10c-97 0-170 25-221 76-51 50-77 124-77 223v359c0 43 21 65 64 65s64-22 64-65V290c0-63 15-111 44-142 29-32 71-48 126-48 113 0 169 63 169 190v358c0 43 21 65 64 65 42 0 63-22 63-65V289c0-99-25-173-75-223-50-51-124-76-221-76m113 780c-9-11-18-15-29-14s-20 7-25 17c-6 9-6 20 1 32l66 121c7 14 17 22 30 24 12 2 23 0 34-6 10-6 17-14 20-25s0-24-10-37M338 773c-9-12-19-17-30-16s-20 6-27 15-7 19-1 31l60 122c7 14 17 22 29 25 12 2 24 0 35-5 11-6 18-15 22-26s1-24-9-37z"/><glyph unicode="Ȗ" horiz-adv-x="738" d="M370-10c-97 0-170 25-221 76-51 50-77 124-77 223v359c0 43 21 65 64 65s64-22 64-65V290c0-63 15-111 44-142 29-32 71-48 126-48 113 0 169 63 169 190v358c0 43 21 65 64 65 42 0 63-22 63-65V289c0-99-25-173-75-223-50-51-124-76-221-76M221 760c-9 1-17 6-23 15-7 8-8 19-5 32 11 43 33 76 65 99 31 22 69 33 112 33s81-11 113-33c32-23 53-56 64-99 3-13 2-24-4-32-7-9-15-14-24-15-14-1-24 1-31 8-7 6-11 13-13 21-7 27-20 47-40 59-20 11-42 17-65 17s-44-6-64-17c-20-12-34-32-41-59-2-8-6-15-13-21-7-7-17-9-31-8z"/><glyph unicode="Ū" horiz-adv-x="738" d="M370-10c-97 0-170 25-221 76-51 50-77 124-77 223v359c0 43 21 65 64 65s64-22 64-65V290c0-63 15-111 44-142 29-32 71-48 126-48 113 0 169 63 169 190v358c0 43 21 65 64 65 42 0 63-22 63-65V289c0-99-25-173-75-223-50-51-124-76-221-76M232 806c-26 0-39 12-39 37s13 37 39 37h277c26 0 39-12 39-37s-13-37-39-37z"/><glyph unicode="Ṻ" horiz-adv-x="738" d="M370-10c-97 0-170 25-221 76-51 50-77 124-77 223v359c0 43 21 65 64 65s64-22 64-65V290c0-63 15-111 44-142 29-32 71-48 126-48 113 0 169 63 169 190v358c0 43 21 65 64 65 42 0 63-22 63-65V289c0-99-25-173-75-223-50-51-124-76-221-76m-94 916c-19 0-34 4-45 13-11 8-17 20-17 35s6 27 17 36 26 13 45 13c41 0 62-16 62-49 0-32-21-48-62-48m189 0c-41 0-62 16-62 48 0 33 21 49 62 49s61-16 61-49c0-32-20-48-61-48M250 788c-28 0-42 12-42 37s14 37 42 37h240c28 0 42-12 42-37s-14-37-42-37z"/><glyph unicode="Ų" horiz-adv-x="738" d="M370-10c-97 0-170 25-221 76-51 50-77 124-77 223v359c0 43 21 65 64 65s64-22 64-65V290c0-63 15-111 44-142 29-32 71-48 126-48 113 0 169 63 169 190v358c0 43 21 65 64 65 42 0 63-22 63-65V289c0-99-25-173-75-223-50-51-124-76-221-76m36-185c-37 0-65 9-86 28s-32 44-32 76c0 28 9 54 28 78s43 42 74 55l37-42c-17-7-31-17-42-30-12-14-18-30-18-47s5-29 16-38 24-13 40-13c10 0 20 1 30 4 16 5 27 3 34-6s9-19 6-30c-3-12-11-21-24-26-11-4-21-6-32-7s-22-2-31-2z"/><glyph unicode="Ů" horiz-adv-x="738" d="M370-10c-97 0-170 25-221 76-51 50-77 124-77 223v359c0 43 21 65 64 65s64-22 64-65V290c0-63 15-111 44-142 29-32 71-48 126-48 113 0 169 63 169 190v358c0 43 21 65 64 65 42 0 63-22 63-65V289c0-99-25-173-75-223-50-51-124-76-221-76m0 765c-23 0-45 6-64 17s-34 25-45 44-17 39-17 62c0 35 12 64 37 87 24 23 54 35 89 35s65-12 90-35c24-23 36-52 36-87 0-23-5-43-16-62s-26-33-45-44-41-17-65-17m0 57c19 0 35 6 47 19s18 28 18 47-6 34-18 47c-12 12-28 18-47 18s-34-6-46-18c-13-13-19-28-19-47s6-34 19-47c12-13 27-19 46-19z"/><glyph unicode="Ũ" horiz-adv-x="738" d="M370-10c-97 0-170 25-221 76-51 50-77 124-77 223v359c0 43 21 65 64 65s64-22 64-65V290c0-63 15-111 44-142 29-32 71-48 126-48 113 0 169 63 169 190v358c0 43 21 65 64 65 42 0 63-22 63-65V289c0-99-25-173-75-223-50-51-124-76-221-76M181 769c-11 1-19 4-25 11s-8 16-5 27c8 37 24 66 47 87 23 20 50 30 83 30 19 0 36-3 52-10s31-14 46-23 29-16 43-23c13-7 27-10 40-10 17 0 31 5 42 14 10 9 17 20 20 33 5 19 17 27 35 26 11-1 19-4 25-11s8-16 5-27c-8-37-23-66-45-86-23-21-51-31-84-31-19 0-36 3-52 10-17 7-32 14-47 23s-29 16-42 23c-14 7-28 10-41 10-17 0-30-4-41-13s-18-21-21-34c-5-19-17-27-35-26z"/><glyph unicode="Ṹ" horiz-adv-x="738" d="M370-10c-97 0-170 25-221 76-51 50-77 124-77 223v359c0 43 21 65 64 65s64-22 64-65V290c0-63 15-111 44-142 29-32 71-48 126-48 113 0 169 63 169 190v358c0 43 21 65 64 65 42 0 63-22 63-65V289c0-99-25-173-75-223-50-51-124-76-221-76m39 904c-9-11-20-15-31-14-12 1-21 7-27 17-7 9-7 20 0 33l49 89c8 14 18 22 31 24s25 0 36-7 19-16 22-27c3-12-1-24-12-37M229 765c-9 1-16 4-21 11s-7 15-4 26c7 25 19 43 37 56 17 13 38 19 63 19 18 0 34-4 49-11s29-15 42-22 25-11 38-11c10 0 19 2 27 6 8 3 14 9 17 18 6 15 18 23 35 22 9-1 17-4 22-10 5-7 6-16 3-27-7-25-19-43-36-56-18-13-39-19-64-19-18 0-34 4-49 11s-29 15-42 22-25 11-38 11c-10 0-19-2-27-5-8-4-14-10-17-19-6-15-18-23-35-22z"/><glyph unicode="V" horiz-adv-x="713" d="M357-8c-34 0-58 17-73 50L23 628c-11 25-10 46 2 62 11 15 28 23 51 23 19 0 34-4 44-12 9-9 17-21 24-38l215-499 215 500c7 16 16 28 26 37 10 8 24 12 42 12 21 0 38-8 49-24s10-36-1-61L429 42c-7-17-16-29-27-37-11-9-26-13-45-13z"/><glyph unicode="W" horiz-adv-x="1113" d="M325-8c-34 0-57 18-70 54L46 637c-7 21-6 39 5 54 10 15 27 22 52 22 18 0 32-4 42-12 10-9 18-22 24-40l160-476 168 475c13 35 34 53 64 53 16 0 29-4 38-13s17-22 24-41l165-481 165 483c6 17 14 30 24 39s24 13 41 13c21 0 37-7 47-22s11-33 4-54L858 45c-7-18-15-31-26-40S807-8 789-8s-32 4-43 13-19 22-26 41L557 509 393 45c-7-18-15-31-25-40-11-9-25-13-43-13z"/><glyph unicode="Ẃ" horiz-adv-x="1113" d="M325-8c-34 0-57 18-70 54L46 637c-7 21-6 39 5 54 10 15 27 22 52 22 18 0 32-4 42-12 10-9 18-22 24-40l160-476 168 475c13 35 34 53 64 53 16 0 29-4 38-13s17-22 24-41l165-481 165 483c6 17 14 30 24 39s24 13 41 13c21 0 37-7 47-22s11-33 4-54L858 45c-7-18-15-31-26-40S807-8 789-8s-32 4-43 13-19 22-26 41L557 509 393 45c-7-18-15-31-25-40-11-9-25-13-43-13m283 779c-8-9-17-13-26-13-10-1-19 2-26 8-8 5-13 12-15 21-3 9-1 18 5 27l78 115c9 14 21 21 34 22s26-3 37-10c11-8 18-18 21-29 3-12-1-24-12-36z"/><glyph unicode="Ŵ" horiz-adv-x="1113" d="M325-8c-34 0-57 18-70 54L46 637c-7 21-6 39 5 54 10 15 27 22 52 22 18 0 32-4 42-12 10-9 18-22 24-40l160-476 168 475c13 35 34 53 64 53 16 0 29-4 38-13s17-22 24-41l165-481 165 483c6 17 14 30 24 39s24 13 41 13c21 0 37-7 47-22s11-33 4-54L858 45c-7-18-15-31-26-40S807-8 789-8s-32 4-43 13-19 22-26 41L557 509 393 45c-7-18-15-31-25-40-11-9-25-13-43-13m148 779c-11-11-23-16-36-14s-23 8-29 19c-7 10-6 21 3 34l73 101c18 27 42 40 73 40 30 0 55-13 74-40l72-101c9-13 11-24 5-34-7-11-16-17-29-19s-26 3-37 14l-85 98z"/><glyph unicode="Ẅ" horiz-adv-x="1113" d="M325-8c-34 0-57 18-70 54L46 637c-7 21-6 39 5 54 10 15 27 22 52 22 18 0 32-4 42-12 10-9 18-22 24-40l160-476 168 475c13 35 34 53 64 53 16 0 29-4 38-13s17-22 24-41l165-481 165 483c6 17 14 30 24 39s24 13 41 13c21 0 37-7 47-22s11-33 4-54L858 45c-7-18-15-31-26-40S807-8 789-8s-32 4-43 13-19 22-26 41L557 509 393 45c-7-18-15-31-25-40-11-9-25-13-43-13m327 794c-41 0-62 21-62 62s21 61 62 61 61-20 61-61-20-62-61-62m-189 0c-19 0-34 5-45 16s-17 26-17 46c0 19 6 34 17 45s26 16 45 16c41 0 62-20 62-61s-21-62-62-62z"/><glyph unicode="Ẁ" horiz-adv-x="1113" d="M325-8c-34 0-57 18-70 54L46 637c-7 21-6 39 5 54 10 15 27 22 52 22 18 0 32-4 42-12 10-9 18-22 24-40l160-476 168 475c13 35 34 53 64 53 16 0 29-4 38-13s17-22 24-41l165-481 165 483c6 17 14 30 24 39s24 13 41 13c21 0 37-7 47-22s11-33 4-54L858 45c-7-18-15-31-26-40S807-8 789-8s-32 4-43 13-19 22-26 41L557 509 393 45c-7-18-15-31-25-40-11-9-25-13-43-13m182 779l-96 105c-11 12-14 24-11 36 3 11 10 21 21 29 11 7 23 11 36 10s25-8 34-22l78-115c6-9 8-18 6-27-3-9-8-16-15-21-8-6-17-9-26-8-10 0-19 4-27 13z"/><glyph unicode="X" horiz-adv-x="672" d="M101-8C84-8 71-3 60 6S43 26 42 40c-2 13 2 27 13 41l208 278L66 623c-11 15-15 29-14 43 1 13 7 25 18 34s24 13 40 13c25 0 47-14 67-41l159-220 159 220c20 27 43 41 68 41 17 0 30-4 41-13s17-20 18-33c1-14-4-29-15-44L410 359 617 81c11-14 15-28 14-41-1-14-7-25-18-34S588-8 571-8c-24 0-46 14-67 42L336 264 169 34C148 6 126-8 101-8z"/><glyph unicode="Y" horiz-adv-x="618" d="M309-8c-43 0-64 22-64 67v265L31 625c-9 12-12 25-11 39 1 13 6 25 16 35 10 9 24 14 42 14 26 0 49-14 68-41l165-234 166 234c11 15 21 25 31 32 10 6 22 9 37 9 26 0 43-9 52-28 8-19 4-40-11-61L373 323V59c0-45-21-67-64-67z"/><glyph unicode="Ý" horiz-adv-x="618" d="M309-8c-43 0-64 22-64 67v265L31 625c-9 12-12 25-11 39 1 13 6 25 16 35 10 9 24 14 42 14 26 0 49-14 68-41l165-234 166 234c11 15 21 25 31 32 10 6 22 9 37 9 26 0 43-9 52-28 8-19 4-40-11-61L373 323V59c0-45-21-67-64-67m51 779c-8-9-17-13-26-13-10-1-19 2-26 8-8 5-13 12-15 21-3 9-1 18 5 27l78 115c9 14 21 21 34 22s26-3 37-10c11-8 18-18 21-29 3-12-1-24-12-36z"/><glyph unicode="Ŷ" horiz-adv-x="618" d="M309-8c-43 0-64 22-64 67v265L31 625c-9 12-12 25-11 39 1 13 6 25 16 35 10 9 24 14 42 14 26 0 49-14 68-41l165-234 166 234c11 15 21 25 31 32 10 6 22 9 37 9 26 0 43-9 52-28 8-19 4-40-11-61L373 323V59c0-45-21-67-64-67m-84 779c-11-11-23-16-36-14s-23 8-29 19c-7 10-6 21 3 34l73 101c18 27 42 40 73 40 30 0 55-13 74-40l72-101c9-13 11-24 5-34-7-11-16-17-29-19s-26 3-37 14l-85 98z"/><glyph unicode="Ÿ" horiz-adv-x="618" d="M309-8c-43 0-64 22-64 67v265L31 625c-9 12-12 25-11 39 1 13 6 25 16 35 10 9 24 14 42 14 26 0 49-14 68-41l165-234 166 234c11 15 21 25 31 32 10 6 22 9 37 9 26 0 43-9 52-28 8-19 4-40-11-61L373 323V59c0-45-21-67-64-67m95 794c-41 0-62 21-62 62s21 61 62 61 61-20 61-61-20-62-61-62m-189 0c-19 0-34 5-45 16s-17 26-17 46c0 19 6 34 17 45s26 16 45 16c41 0 62-20 62-61s-21-62-62-62z"/><glyph unicode="Ẏ" horiz-adv-x="618" d="M309-8c-43 0-64 22-64 67v265L31 625c-9 12-12 25-11 39 1 13 6 25 16 35 10 9 24 14 42 14 26 0 49-14 68-41l165-234 166 234c11 15 21 25 31 32 10 6 22 9 37 9 26 0 43-9 52-28 8-19 4-40-11-61L373 323V59c0-45-21-67-64-67m0 797c-43 0-65 21-65 63 0 41 22 62 65 62s65-21 65-62c0-42-22-63-65-63z"/><glyph unicode="Ỵ" horiz-adv-x="618" d="M309-8c-43 0-64 22-64 67v265L31 625c-9 12-12 25-11 39 1 13 6 25 16 35 10 9 24 14 42 14 26 0 49-14 68-41l165-234 166 234c11 15 21 25 31 32 10 6 22 9 37 9 26 0 43-9 52-28 8-19 4-40-11-61L373 323V59c0-45-21-67-64-67m1-201c-43 0-65 21-65 63 0 41 22 62 65 62 44 0 66-21 66-62 0-42-22-63-66-63z"/><glyph unicode="Ỳ" horiz-adv-x="618" d="M309-8c-43 0-64 22-64 67v265L31 625c-9 12-12 25-11 39 1 13 6 25 16 35 10 9 24 14 42 14 26 0 49-14 68-41l165-234 166 234c11 15 21 25 31 32 10 6 22 9 37 9 26 0 43-9 52-28 8-19 4-40-11-61L373 323V59c0-45-21-67-64-67m-50 779l-96 105c-11 12-14 24-11 36 3 11 10 21 21 29 11 7 23 11 36 10s25-8 34-22l78-115c6-9 8-18 6-27-3-9-8-16-15-21-8-6-17-9-26-8-10 0-19 4-27 13z"/><glyph unicode="Ƴ" horiz-adv-x="619" d="M309-8c-43 0-64 23-64 68v264L31 625c-9 12-12 25-11 39 1 13 7 25 17 35 10 9 24 14 42 14 17 0 31-3 40-10s19-20 32-38l160-228 127 184c21 31 46 55 73 70s59 23 97 23c27 0 48-3 63-10s22-21 22-43c0-14-3-24-10-31s-16-11-26-10c-5 1-9 1-13 1h-13c-15 0-29-4-44-11s-29-20-41-37L373 323V60c0-45-21-68-64-68z"/><glyph unicode="Ỷ" horiz-adv-x="618" d="M309-8c-43 0-64 22-64 67v265L31 625c-9 12-12 25-11 39 1 13 6 25 16 35 10 9 24 14 42 14 26 0 49-14 68-41l165-234 166 234c11 15 21 25 31 32 10 6 22 9 37 9 26 0 43-9 52-28 8-19 4-40-11-61L373 323V59c0-45-21-67-64-67m0 765c-25 0-38 9-38 26 0 16 5 28 14 37 9 8 19 15 28 22s14 14 14 23c0 13-13 20-40 20-5 0-10 0-16-1-7-1-13-2-19-3-23-5-37 0-42 15-3 8-2 16 1 23s9 12 20 15c11 4 25 7 40 9s30 3 46 3c33 0 58-6 77-17s28-27 28-46c0-15-4-26-11-35s-16-16-26-22c-10-7-19-13-26-20s-11-17-11-29c0-13-13-20-39-20z"/><glyph unicode="Ȳ" horiz-adv-x="618" d="M309-8c-43 0-64 22-64 67v265L31 625c-9 12-12 25-11 39 1 13 6 25 16 35 10 9 24 14 42 14 26 0 49-14 68-41l165-234 166 234c11 15 21 25 31 32 10 6 22 9 37 9 26 0 43-9 52-28 8-19 4-40-11-61L373 323V59c0-45-21-67-64-67M171 806c-26 0-39 12-39 37s13 37 39 37h277c26 0 39-12 39-37s-13-37-39-37z"/><glyph unicode="Ỹ" horiz-adv-x="618" d="M309-8c-43 0-64 22-64 67v265L31 625c-9 12-12 25-11 39 1 13 6 25 16 35 10 9 24 14 42 14 26 0 49-14 68-41l165-234 166 234c11 15 21 25 31 32 10 6 22 9 37 9 26 0 43-9 52-28 8-19 4-40-11-61L373 323V59c0-45-21-67-64-67M120 769c-11 1-19 4-25 11s-8 16-5 27c8 37 24 66 47 87 23 20 50 30 83 30 19 0 36-3 52-10s31-14 46-23 29-16 43-23c13-7 27-10 40-10 17 0 31 5 42 14 10 9 17 20 20 33 5 19 17 27 35 26 11-1 19-4 25-11s8-16 5-27c-8-37-23-66-45-86-23-21-51-31-84-31-19 0-36 3-52 10-17 7-32 14-47 23s-29 16-42 23c-14 7-28 10-41 10-17 0-30-4-41-13s-18-21-21-34c-5-19-17-27-35-26z"/><glyph unicode="Z" horiz-adv-x="605" d="M106 0C84 0 68 6 57 18 46 29 41 44 43 63c1 19 9 38 24 58l352 477H96c-38 0-57 18-57 54 0 35 19 53 57 53h414c22 0 39-6 50-17 11-12 15-27 14-45-1-19-10-38-25-59L197 107h338c38 0 57-18 57-53 0-36-19-54-57-54z"/><glyph unicode="Ź" horiz-adv-x="605" d="M106 0C84 0 68 6 57 18 46 29 41 44 43 63c1 19 9 38 24 58l352 477H96c-38 0-57 18-57 54 0 35 19 53 57 53h414c22 0 39-6 50-17 11-12 15-27 14-45-1-19-10-38-25-59L197 107h338c38 0 57-18 57-53 0-36-19-54-57-54M364 771c-8-9-17-13-26-13-10-1-19 2-26 8-8 5-13 12-15 21-3 9-1 18 5 27l78 115c9 14 21 21 34 22s26-3 37-10c11-8 18-18 21-29 3-12-1-24-12-36z"/><glyph unicode="Ž" horiz-adv-x="605" d="M106 0C84 0 68 6 57 18 46 29 41 44 43 63c1 19 9 38 24 58l352 477H96c-38 0-57 18-57 54 0 35 19 53 57 53h414c22 0 39-6 50-17 11-12 15-27 14-45-1-19-10-38-25-59L197 107h338c38 0 57-18 57-53 0-36-19-54-57-54M313 754c-31 0-55 13-73 39l-73 102c-7 9-9 18-6 27 2 9 7 16 15 21s17 7 27 6c9-1 18-7 26-16l84-98 85 98c11 13 23 18 36 16s22-8 29-18c7-11 5-23-4-36l-72-102c-18-26-43-39-74-39z"/><glyph unicode="Ż" horiz-adv-x="605" d="M106 0C84 0 68 6 57 18 46 29 41 44 43 63c1 19 9 38 24 58l352 477H96c-38 0-57 18-57 54 0 35 19 53 57 53h414c22 0 39-6 50-17 11-12 15-27 14-45-1-19-10-38-25-59L197 107h338c38 0 57-18 57-53 0-36-19-54-57-54M313 789c-43 0-65 21-65 63 0 41 22 62 65 62s65-21 65-62c0-42-22-63-65-63z"/><glyph unicode="Ẓ" horiz-adv-x="605" d="M106 0C84 0 68 6 57 18 46 29 41 44 43 63c1 19 9 38 24 58l352 477H96c-38 0-57 18-57 54 0 35 19 53 57 53h414c22 0 39-6 50-17 11-12 15-27 14-45-1-19-10-38-25-59L197 107h338c38 0 57-18 57-53 0-36-19-54-57-54M314-209c-43 0-65 21-65 63 0 41 22 62 65 62 44 0 66-21 66-62 0-42-22-63-66-63z"/><glyph unicode="a" horiz-adv-x="547" d="M226-10c-35 0-67 7-94 21-28 13-50 32-65 55-16 23-24 50-24 79 0 36 9 65 28 86s49 36 91 45 98 14 169 14h35v21c0 33-7 57-22 72s-39 22-74 22c-19 0-40-2-62-7-23-5-46-13-71-24-16-7-29-8-40-2-11 5-18 14-21 27-4 12-3 24 2 37s15 22 30 28c31 13 60 22 89 27 28 5 54 8 77 8 71 0 124-16 159-49s52-85 52-154V56c0-43-19-64-58-64s-59 21-59 64v22c-11-27-29-49-54-64-25-16-54-24-88-24m26 86c33 0 60 11 82 34 21 23 32 51 32 86v22h-34c-63 0-106-5-130-14-25-10-37-28-37-53 0-22 8-40 23-54s37-21 64-21z"/><glyph unicode="á" horiz-adv-x="547" d="M226-10c-35 0-67 7-94 21-28 13-50 32-65 55-16 23-24 50-24 79 0 36 9 65 28 86s49 36 91 45 98 14 169 14h35v21c0 33-7 57-22 72s-39 22-74 22c-19 0-40-2-62-7-23-5-46-13-71-24-16-7-29-8-40-2-11 5-18 14-21 27-4 12-3 24 2 37s15 22 30 28c31 13 60 22 89 27 28 5 54 8 77 8 71 0 124-16 159-49s52-85 52-154V56c0-43-19-64-58-64s-59 21-59 64v22c-11-27-29-49-54-64-25-16-54-24-88-24m26 86c33 0 60 11 82 34 21 23 32 51 32 86v22h-34c-63 0-106-5-130-14-25-10-37-28-37-53 0-22 8-40 23-54s37-21 64-21m74 484c-7-9-15-15-24-16s-18 0-27 5-15 11-18 20c-4 9-3 18 2 29l76 149c7 15 18 24 31 27 13 2 26 0 39-7 12-7 20-16 25-28 5-13 2-26-7-39z"/><glyph unicode="ă" horiz-adv-x="547" d="M226-10c-35 0-67 7-94 21-28 13-50 32-65 55-16 23-24 50-24 79 0 36 9 65 28 86s49 36 91 45 98 14 169 14h35v21c0 33-7 57-22 72s-39 22-74 22c-19 0-40-2-62-7-23-5-46-13-71-24-16-7-29-8-40-2-11 5-18 14-21 27-4 12-3 24 2 37s15 22 30 28c31 13 60 22 89 27 28 5 54 8 77 8 71 0 124-16 159-49s52-85 52-154V56c0-43-19-64-58-64s-59 21-59 64v22c-11-27-29-49-54-64-25-16-54-24-88-24m26 86c33 0 60 11 82 34 21 23 32 51 32 86v22h-34c-63 0-106-5-130-14-25-10-37-28-37-53 0-22 8-40 23-54s37-21 64-21m27 475c-47 0-84 15-111 45-27 29-45 66-52 111-2 13 0 24 7 33 6 8 14 12 25 13 23 1 37-11 41-36 5-30 16-52 32-67s35-23 58-23 42 8 59 23c16 15 26 37 31 67 4 25 18 37 41 36 11-1 20-5 26-13 6-9 8-20 6-33-7-45-24-82-51-111-27-30-65-45-112-45z"/><glyph unicode="ắ" horiz-adv-x="547" d="M226-10c-35 0-67 7-94 21-28 13-50 32-65 55-16 23-24 50-24 79 0 36 9 65 28 86s49 36 91 45 98 14 169 14h35v21c0 33-7 57-22 72s-39 22-74 22c-19 0-40-2-62-7-23-5-46-13-71-24-16-7-29-8-40-2-11 5-18 14-21 27-4 12-3 24 2 37s15 22 30 28c31 13 60 22 89 27 28 5 54 8 77 8 71 0 124-16 159-49s52-85 52-154V56c0-43-19-64-58-64s-59 21-59 64v22c-11-27-29-49-54-64-25-16-54-24-88-24m26 86c33 0 60 11 82 34 21 23 32 51 32 86v22h-34c-63 0-106-5-130-14-25-10-37-28-37-53 0-22 8-40 23-54s37-21 64-21m60 602c-9-11-20-15-32-14s-21 7-27 17c-7 9-7 20 0 32l51 92c8 14 18 22 31 24 13 1 25-1 36-8s18-17 21-28c3-12-1-24-12-37M279 551c-43 0-79 11-108 33s-48 51-57 87c-3 13-2 23 3 31 4 7 11 11 20 12s17 0 24-3c6-3 11-11 14-22 7-20 19-36 36-49s40-19 68-19 51 6 68 19 29 29 36 49c3 11 8 19 15 22 6 3 14 4 23 3s16-5 21-12c5-8 5-18 2-31-9-36-27-65-56-87s-66-33-109-33z"/><glyph unicode="ặ" horiz-adv-x="547" d="M226-10c-35 0-67 7-94 21-28 13-50 32-65 55-16 23-24 50-24 79 0 36 9 65 28 86s49 36 91 45 98 14 169 14h35v21c0 33-7 57-22 72s-39 22-74 22c-19 0-40-2-62-7-23-5-46-13-71-24-16-7-29-8-40-2-11 5-18 14-21 27-4 12-3 24 2 37s15 22 30 28c31 13 60 22 89 27 28 5 54 8 77 8 71 0 124-16 159-49s52-85 52-154V56c0-43-19-64-58-64s-59 21-59 64v22c-11-27-29-49-54-64-25-16-54-24-88-24m26 86c33 0 60 11 82 34 21 23 32 51 32 86v22h-34c-63 0-106-5-130-14-25-10-37-28-37-53 0-22 8-40 23-54s37-21 64-21m23-285c-43 0-65 21-65 63 0 41 22 62 65 62 44 0 66-21 66-62 0-42-22-63-66-63m4 760c-47 0-84 15-111 45-27 29-45 66-52 111-2 13 0 24 7 33 6 8 14 12 25 13 23 1 37-11 41-36 5-30 16-52 32-67s35-23 58-23 42 8 59 23c16 15 26 37 31 67 4 25 18 37 41 36 11-1 20-5 26-13 6-9 8-20 6-33-7-45-24-82-51-111-27-30-65-45-112-45z"/><glyph unicode="ằ" horiz-adv-x="547" d="M226-10c-35 0-67 7-94 21-28 13-50 32-65 55-16 23-24 50-24 79 0 36 9 65 28 86s49 36 91 45 98 14 169 14h35v21c0 33-7 57-22 72s-39 22-74 22c-19 0-40-2-62-7-23-5-46-13-71-24-16-7-29-8-40-2-11 5-18 14-21 27-4 12-3 24 2 37s15 22 30 28c31 13 60 22 89 27 28 5 54 8 77 8 71 0 124-16 159-49s52-85 52-154V56c0-43-19-64-58-64s-59 21-59 64v22c-11-27-29-49-54-64-25-16-54-24-88-24m26 86c33 0 60 11 82 34 21 23 32 51 32 86v22h-34c-63 0-106-5-130-14-25-10-37-28-37-53 0-22 8-40 23-54s37-21 64-21m-6 602l-68 78c-11 13-14 25-11 37 3 11 10 21 21 28s22 9 35 8c13-2 23-10 31-24l51-92c7-12 8-23 1-32-7-10-16-16-27-17-12-1-23 3-33 14m33-127c-43 0-79 11-108 33s-48 51-57 87c-3 13-2 23 3 31 4 7 11 11 20 12s17 0 24-3c6-3 11-11 14-22 7-20 19-36 36-49s40-19 68-19 51 6 68 19 29 29 36 49c3 11 8 19 15 22 6 3 14 4 23 3s16-5 21-12c5-8 5-18 2-31-9-36-27-65-56-87s-66-33-109-33z"/><glyph unicode="ẳ" horiz-adv-x="547" d="M226-10c-35 0-67 7-94 21-28 13-50 32-65 55-16 23-24 50-24 79 0 36 9 65 28 86s49 36 91 45 98 14 169 14h35v21c0 33-7 57-22 72s-39 22-74 22c-19 0-40-2-62-7-23-5-46-13-71-24-16-7-29-8-40-2-11 5-18 14-21 27-4 12-3 24 2 37s15 22 30 28c31 13 60 22 89 27 28 5 54 8 77 8 71 0 124-16 159-49s52-85 52-154V56c0-43-19-64-58-64s-59 21-59 64v22c-11-27-29-49-54-64-25-16-54-24-88-24m26 86c33 0 60 11 82 34 21 23 32 51 32 86v22h-34c-63 0-106-5-130-14-25-10-37-28-37-53 0-22 8-40 23-54s37-21 64-21m52 595c-9-5-18-7-27-4-10 3-17 7-20 14-4 7-2 13 7 20 21 15 31 30 31 45s-12 23-36 23c-5 0-10 0-15-1l-18-3c-19-5-31 0-36 15s1 26 20 33c12 4 24 7 37 8 12 1 25 2 38 2 29 0 52-5 69-14s25-24 25-43-8-37-23-53c-16-17-33-31-52-42m-25-120c-43 0-79 11-108 33s-48 51-57 87c-3 13-2 23 3 31 4 7 11 11 20 12s17 0 24-3c6-3 11-11 14-22 7-20 19-36 36-49s40-19 68-19 51 6 68 19 29 29 36 49c3 11 8 19 15 22 6 3 14 4 23 3s16-5 21-12c5-8 5-18 2-31-9-36-27-65-56-87s-66-33-109-33z"/><glyph unicode="ẵ" horiz-adv-x="547" d="M226-10c-35 0-67 7-94 21-28 13-50 32-65 55-16 23-24 50-24 79 0 36 9 65 28 86s49 36 91 45 98 14 169 14h35v21c0 33-7 57-22 72s-39 22-74 22c-19 0-40-2-62-7-23-5-46-13-71-24-16-7-29-8-40-2-11 5-18 14-21 27-4 12-3 24 2 37s15 22 30 28c31 13 60 22 89 27 28 5 54 8 77 8 71 0 124-16 159-49s52-85 52-154V56c0-43-19-64-58-64s-59 21-59 64v22c-11-27-29-49-54-64-25-16-54-24-88-24m26 86c33 0 60 11 82 34 21 23 32 51 32 86v22h-34c-63 0-106-5-130-14-25-10-37-28-37-53 0-22 8-40 23-54s37-21 64-21M138 710c-9 1-16 4-21 11s-7 15-4 26c7 25 19 43 37 56 17 13 38 19 63 19 18 0 34-4 49-11s29-15 42-22 25-11 38-11c10 0 19 2 27 6 8 3 14 9 17 18 6 15 18 23 35 22 9-1 17-4 22-10 5-7 6-16 3-27-7-25-19-43-36-56-18-13-39-19-64-19-18 0-34 4-49 11s-29 15-42 22-25 11-38 11c-10 0-19-2-27-5-8-4-14-10-17-19-6-15-18-23-35-22m141-159c-39 0-72 8-99 24-28 15-48 35-59 58-5 11-6 21-3 29 3 7 10 12 19 15 10 3 18 4 24 2s12-7 18-16c9-13 21-23 38-30 17-8 37-12 62-12s46 4 63 12c16 7 28 17 37 30 6 9 12 14 18 16s14 1 24-2c9-3 16-8 19-15 3-8 2-18-3-29-11-23-31-43-58-58-27-16-61-24-100-24z"/><glyph unicode="ǎ" horiz-adv-x="547" d="M226-10c-35 0-67 7-94 21-28 13-50 32-65 55-16 23-24 50-24 79 0 36 9 65 28 86s49 36 91 45 98 14 169 14h35v21c0 33-7 57-22 72s-39 22-74 22c-19 0-40-2-62-7-23-5-46-13-71-24-16-7-29-8-40-2-11 5-18 14-21 27-4 12-3 24 2 37s15 22 30 28c31 13 60 22 89 27 28 5 54 8 77 8 71 0 124-16 159-49s52-85 52-154V56c0-43-19-64-58-64s-59 21-59 64v22c-11-27-29-49-54-64-25-16-54-24-88-24m26 86c33 0 60 11 82 34 21 23 32 51 32 86v22h-34c-63 0-106-5-130-14-25-10-37-28-37-53 0-22 8-40 23-54s37-21 64-21m27 460c-30 0-53 16-70 47l-72 131c-6 11-7 20-4 29s9 15 17 20c8 4 17 5 26 4s16-7 22-16l81-126 81 126c6 9 14 15 23 16s17 0 25-4c8-5 14-11 17-20s2-18-4-29l-71-131c-17-31-40-47-71-47z"/><glyph unicode="â" horiz-adv-x="547" d="M226-10c-35 0-67 7-94 21-28 13-50 32-65 55-16 23-24 50-24 79 0 36 9 65 28 86s49 36 91 45 98 14 169 14h35v21c0 33-7 57-22 72s-39 22-74 22c-19 0-40-2-62-7-23-5-46-13-71-24-16-7-29-8-40-2-11 5-18 14-21 27-4 12-3 24 2 37s15 22 30 28c31 13 60 22 89 27 28 5 54 8 77 8 71 0 124-16 159-49s52-85 52-154V56c0-43-19-64-58-64s-59 21-59 64v22c-11-27-29-49-54-64-25-16-54-24-88-24m26 86c33 0 60 11 82 34 21 23 32 51 32 86v22h-34c-63 0-106-5-130-14-25-10-37-28-37-53 0-22 8-40 23-54s37-21 64-21m169 521c6-11 7-20 4-29s-9-15-17-19c-8-5-16-6-25-5s-17 7-23 16l-81 126-81-126c-6-9-13-15-22-16s-18 0-26 5c-8 4-14 10-17 19s-2 18 4 29l72 132c16 30 39 45 70 45s55-15 71-45z"/><glyph unicode="ấ" horiz-adv-x="547" d="M226-10c-35 0-67 7-94 21-28 13-50 32-65 55-16 23-24 50-24 79 0 36 9 65 28 86s49 36 91 45 98 14 169 14h35v21c0 33-7 57-22 72s-39 22-74 22c-19 0-40-2-62-7-23-5-46-13-71-24-16-7-29-8-40-2-11 5-18 14-21 27-4 12-3 24 2 37s15 22 30 28c31 13 60 22 89 27 28 5 54 8 77 8 71 0 124-16 159-49s52-85 52-154V56c0-43-19-64-58-64s-59 21-59 64v22c-11-27-29-49-54-64-25-16-54-24-88-24m26 86c33 0 60 11 82 34 21 23 32 51 32 86v22h-34c-63 0-106-5-130-14-25-10-37-28-37-53 0-22 8-40 23-54s37-21 64-21m202 578c-8-10-17-14-28-13s-19 6-24 15c-6 9-5 20 2 33l62 110c7 13 17 21 28 23 11 1 22-1 32-6 9-6 16-14 19-25s-1-22-10-34M198 558c-11-12-22-17-34-15-12 1-21 7-26 18-6 10-5 21 4 34l65 97c10 15 21 25 33 31 11 5 24 8 39 8s29-3 41-8c11-6 22-16 31-31l65-97c9-13 10-24 5-34-5-11-14-17-25-18-12-2-24 3-35 15l-82 91z"/><glyph unicode="ậ" horiz-adv-x="547" d="M226-10c-35 0-67 7-94 21-28 13-50 32-65 55-16 23-24 50-24 79 0 36 9 65 28 86s49 36 91 45 98 14 169 14h35v21c0 33-7 57-22 72s-39 22-74 22c-19 0-40-2-62-7-23-5-46-13-71-24-16-7-29-8-40-2-11 5-18 14-21 27-4 12-3 24 2 37s15 22 30 28c31 13 60 22 89 27 28 5 54 8 77 8 71 0 124-16 159-49s52-85 52-154V56c0-43-19-64-58-64s-59 21-59 64v22c-11-27-29-49-54-64-25-16-54-24-88-24m26 86c33 0 60 11 82 34 21 23 32 51 32 86v22h-34c-63 0-106-5-130-14-25-10-37-28-37-53 0-22 8-40 23-54s37-21 64-21m23-285c-43 0-65 21-65 63 0 41 22 62 65 62 44 0 66-21 66-62 0-42-22-63-66-63m146 806c6-11 7-20 4-29s-9-15-17-19c-8-5-16-6-25-5s-17 7-23 16l-81 126-81-126c-6-9-13-15-22-16s-18 0-26 5c-8 4-14 10-17 19s-2 18 4 29l72 132c16 30 39 45 70 45s55-15 71-45z"/><glyph unicode="ầ" horiz-adv-x="547" d="M226-10c-35 0-67 7-94 21-28 13-50 32-65 55-16 23-24 50-24 79 0 36 9 65 28 86s49 36 91 45 98 14 169 14h35v21c0 33-7 57-22 72s-39 22-74 22c-19 0-40-2-62-7-23-5-46-13-71-24-16-7-29-8-40-2-11 5-18 14-21 27-4 12-3 24 2 37s15 22 30 28c31 13 60 22 89 27 28 5 54 8 77 8 71 0 124-16 159-49s52-85 52-154V56c0-43-19-64-58-64s-59 21-59 64v22c-11-27-29-49-54-64-25-16-54-24-88-24m26 86c33 0 60 11 82 34 21 23 32 51 32 86v22h-34c-63 0-106-5-130-14-25-10-37-28-37-53 0-22 8-40 23-54s37-21 64-21m181 578l-81 103c-9 12-12 23-9 34s9 19 19 25c9 5 20 7 31 6 11-2 21-10 28-23l62-110c7-13 8-24 3-33-6-9-14-14-25-15s-20 3-28 13m-235-96c-11-12-22-17-34-15-12 1-21 7-26 18-6 10-5 21 4 34l65 97c10 15 21 25 33 31 11 5 24 8 39 8s29-3 41-8c11-6 22-16 31-31l65-97c9-13 10-24 5-34-5-11-14-17-25-18-12-2-24 3-35 15l-82 91z"/><glyph unicode="ẩ" horiz-adv-x="547" d="M226-10c-35 0-67 7-94 21-28 13-50 32-65 55-16 23-24 50-24 79 0 36 9 65 28 86s49 36 91 45 98 14 169 14h35v21c0 33-7 57-22 72s-39 22-74 22c-19 0-40-2-62-7-23-5-46-13-71-24-16-7-29-8-40-2-11 5-18 14-21 27-4 12-3 24 2 37s15 22 30 28c31 13 60 22 89 27 28 5 54 8 77 8 71 0 124-16 159-49s52-85 52-154V56c0-43-19-64-58-64s-59 21-59 64v22c-11-27-29-49-54-64-25-16-54-24-88-24m26 86c33 0 60 11 82 34 21 23 32 51 32 86v22h-34c-63 0-106-5-130-14-25-10-37-28-37-53 0-22 8-40 23-54s37-21 64-21m188 578c-9-5-17-5-26-2s-14 8-16 15c-3 7 0 14 8 21 11 9 19 17 26 24 6 7 9 15 9 24 0 16-12 24-37 24-5 0-10 0-15-1l-18-3c-19-5-31 0-36 15-5 17 2 28 21 34 11 3 23 6 36 7 12 1 25 2 38 2 29 0 52-5 69-14 16-9 24-24 24-45 0-13-4-26-13-39s-19-25-32-35c-13-11-25-20-38-27m-242-96c-11-12-22-17-34-15-12 1-21 7-26 18-6 10-5 21 4 34l65 97c10 15 21 25 33 31 11 5 24 8 39 8s29-3 41-8c11-6 22-16 31-31l65-97c9-13 10-24 5-34-5-11-14-17-25-18-12-2-24 3-35 15l-82 91z"/><glyph unicode="ẫ" horiz-adv-x="547" d="M226-10c-35 0-67 7-94 21-28 13-50 32-65 55-16 23-24 50-24 79 0 36 9 65 28 86s49 36 91 45 98 14 169 14h35v21c0 33-7 57-22 72s-39 22-74 22c-19 0-40-2-62-7-23-5-46-13-71-24-16-7-29-8-40-2-11 5-18 14-21 27-4 12-3 24 2 37s15 22 30 28c31 13 60 22 89 27 28 5 54 8 77 8 71 0 124-16 159-49s52-85 52-154V56c0-43-19-64-58-64s-59 21-59 64v22c-11-27-29-49-54-64-25-16-54-24-88-24m26 86c33 0 60 11 82 34 21 23 32 51 32 86v22h-34c-63 0-106-5-130-14-25-10-37-28-37-53 0-22 8-40 23-54s37-21 64-21M138 710c-9 1-16 4-21 11s-7 15-4 26c7 25 19 43 37 56 17 13 38 19 63 19 18 0 34-4 49-11s29-15 42-22 25-11 38-11c10 0 19 2 27 6 8 3 14 9 17 18 6 15 18 23 35 22 9-1 17-4 22-10 5-7 6-16 3-27-7-25-19-43-36-56-18-13-39-19-64-19-18 0-34 4-49 11s-29 15-42 22-25 11-38 11c-10 0-19-2-27-5-8-4-14-10-17-19-6-15-18-23-35-22m51-158c-11-9-21-11-31-8-11 3-18 9-21 18-4 9-2 18 6 27l59 70c11 13 23 23 36 28s26 7 41 7 30-2 43-7 24-15 35-28l58-70c8-9 10-19 7-28-4-9-11-15-21-18s-21 0-32 9l-90 74z"/><glyph unicode="ȁ" horiz-adv-x="547" d="M226-10c-35 0-67 7-94 21-28 13-50 32-65 55-16 23-24 50-24 79 0 36 9 65 28 86s49 36 91 45 98 14 169 14h35v21c0 33-7 57-22 72s-39 22-74 22c-19 0-40-2-62-7-23-5-46-13-71-24-16-7-29-8-40-2-11 5-18 14-21 27-4 12-3 24 2 37s15 22 30 28c31 13 60 22 89 27 28 5 54 8 77 8 71 0 124-16 159-49s52-85 52-154V56c0-43-19-64-58-64s-59 21-59 64v22c-11-27-29-49-54-64-25-16-54-24-88-24m26 86c33 0 60 11 82 34 21 23 32 51 32 86v22h-34c-63 0-106-5-130-14-25-10-37-28-37-53 0-22 8-40 23-54s37-21 64-21m-82 488l-65 148c-7 16-7 29 0 40 6 10 16 17 29 20s25 2 37-3 20-16 24-33l38-153c3-13 1-24-8-31s-19-10-30-8c-11 1-20 8-25 20m148 0l-65 148c-7 16-7 29 0 40 7 10 16 17 29 20s25 2 38-3c12-5 20-16 24-33l37-153c3-13 1-24-8-31s-19-10-30-8c-11 1-20 8-25 20z"/><glyph unicode="ä" horiz-adv-x="547" d="M226-10c-35 0-67 7-94 21-28 13-50 32-65 55-16 23-24 50-24 79 0 36 9 65 28 86s49 36 91 45 98 14 169 14h35v21c0 33-7 57-22 72s-39 22-74 22c-19 0-40-2-62-7-23-5-46-13-71-24-16-7-29-8-40-2-11 5-18 14-21 27-4 12-3 24 2 37s15 22 30 28c31 13 60 22 89 27 28 5 54 8 77 8 71 0 124-16 159-49s52-85 52-154V56c0-43-19-64-58-64s-59 21-59 64v22c-11-27-29-49-54-64-25-16-54-24-88-24m26 86c33 0 60 11 82 34 21 23 32 51 32 86v22h-34c-63 0-106-5-130-14-25-10-37-28-37-53 0-22 8-40 23-54s37-21 64-21m122 517c-41 0-62 21-62 62s21 61 62 61 61-20 61-61-20-62-61-62m-189 0c-19 0-34 5-45 16s-17 26-17 46c0 19 6 34 17 45s26 16 45 16c41 0 62-20 62-61s-21-62-62-62z"/><glyph unicode="ȧ" horiz-adv-x="547" d="M226-10c-35 0-67 7-94 21-28 13-50 32-65 55-16 23-24 50-24 79 0 36 9 65 28 86s49 36 91 45 98 14 169 14h35v21c0 33-7 57-22 72s-39 22-74 22c-19 0-40-2-62-7-23-5-46-13-71-24-16-7-29-8-40-2-11 5-18 14-21 27-4 12-3 24 2 37s15 22 30 28c31 13 60 22 89 27 28 5 54 8 77 8 71 0 124-16 159-49s52-85 52-154V56c0-43-19-64-58-64s-59 21-59 64v22c-11-27-29-49-54-64-25-16-54-24-88-24m26 86c33 0 60 11 82 34 21 23 32 51 32 86v22h-34c-63 0-106-5-130-14-25-10-37-28-37-53 0-22 8-40 23-54s37-21 64-21m27 517c-43 0-65 21-65 63 0 41 22 62 65 62 44 0 66-21 66-62 0-42-22-63-66-63z"/><glyph unicode="ạ" horiz-adv-x="547" d="M226-10c-35 0-67 7-94 21-28 13-50 32-65 55-16 23-24 50-24 79 0 36 9 65 28 86s49 36 91 45 98 14 169 14h35v21c0 33-7 57-22 72s-39 22-74 22c-19 0-40-2-62-7-23-5-46-13-71-24-16-7-29-8-40-2-11 5-18 14-21 27-4 12-3 24 2 37s15 22 30 28c31 13 60 22 89 27 28 5 54 8 77 8 71 0 124-16 159-49s52-85 52-154V56c0-43-19-64-58-64s-59 21-59 64v22c-11-27-29-49-54-64-25-16-54-24-88-24m26 86c33 0 60 11 82 34 21 23 32 51 32 86v22h-34c-63 0-106-5-130-14-25-10-37-28-37-53 0-22 8-40 23-54s37-21 64-21m23-285c-43 0-65 21-65 63 0 41 22 62 65 62 44 0 66-21 66-62 0-42-22-63-66-63z"/><glyph unicode="à" horiz-adv-x="547" d="M226-10c-35 0-67 7-94 21-28 13-50 32-65 55-16 23-24 50-24 79 0 36 9 65 28 86s49 36 91 45 98 14 169 14h35v21c0 33-7 57-22 72s-39 22-74 22c-19 0-40-2-62-7-23-5-46-13-71-24-16-7-29-8-40-2-11 5-18 14-21 27-4 12-3 24 2 37s15 22 30 28c31 13 60 22 89 27 28 5 54 8 77 8 71 0 124-16 159-49s52-85 52-154V56c0-43-19-64-58-64s-59 21-59 64v22c-11-27-29-49-54-64-25-16-54-24-88-24m26 86c33 0 60 11 82 34 21 23 32 51 32 86v22h-34c-63 0-106-5-130-14-25-10-37-28-37-53 0-22 8-40 23-54s37-21 64-21m-19 484l-97 140c-9 14-12 27-7 39s13 21 25 28 25 9 38 7c13-3 24-12 32-27l75-149c5-11 6-20 3-29s-9-15-18-20-18-6-27-5-17 7-24 16z"/><glyph unicode="ả" horiz-adv-x="547" d="M226-10c-35 0-67 7-94 21-28 13-50 32-65 55-16 23-24 50-24 79 0 36 9 65 28 86s49 36 91 45 98 14 169 14h35v21c0 33-7 57-22 72s-39 22-74 22c-19 0-40-2-62-7-23-5-46-13-71-24-16-7-29-8-40-2-11 5-18 14-21 27-4 12-3 24 2 37s15 22 30 28c31 13 60 22 89 27 28 5 54 8 77 8 71 0 124-16 159-49s52-85 52-154V56c0-43-19-64-58-64s-59 21-59 64v22c-11-27-29-49-54-64-25-16-54-24-88-24m26 86c33 0 60 11 82 34 21 23 32 51 32 86v22h-34c-63 0-106-5-130-14-25-10-37-28-37-53 0-22 8-40 23-54s37-21 64-21m27 470c-25 0-38 9-38 27 0 15 3 27 9 37 5 9 12 18 19 25s14 13 20 20c5 6 8 13 8 22 0 17-13 25-40 25-5 0-11 0-17-1s-12-2-19-4c-11-3-20-4-26-2-7 1-12 6-15 15-7 19 0 33 21 42 12 5 25 8 40 10 14 2 29 3 44 3 33 0 60-6 79-18 19-13 28-31 28-54 0-17-4-30-11-40-8-11-17-20-26-27-10-7-19-15-26-23-8-9-12-19-12-32 0-17-13-25-38-25z"/><glyph unicode="ȃ" horiz-adv-x="547" d="M226-10c-35 0-67 7-94 21-28 13-50 32-65 55-16 23-24 50-24 79 0 36 9 65 28 86s49 36 91 45 98 14 169 14h35v21c0 33-7 57-22 72s-39 22-74 22c-19 0-40-2-62-7-23-5-46-13-71-24-16-7-29-8-40-2-11 5-18 14-21 27-4 12-3 24 2 37s15 22 30 28c31 13 60 22 89 27 28 5 54 8 77 8 71 0 124-16 159-49s52-85 52-154V56c0-43-19-64-58-64s-59 21-59 64v22c-11-27-29-49-54-64-25-16-54-24-88-24m26 86c33 0 60 11 82 34 21 23 32 51 32 86v22h-34c-63 0-106-5-130-14-25-10-37-28-37-53 0-22 8-40 23-54s37-21 64-21M148 549c-11 1-19 5-25 14-7 8-9 19-7 32 7 45 24 82 52 112 27 29 64 44 111 44s85-15 112-44c27-30 44-67 51-112 2-13 0-24-6-32-6-9-15-13-26-14-23-1-37 11-41 36-5 30-15 53-31 68-17 15-36 22-59 22s-42-7-58-22-27-38-32-68c-4-25-18-37-41-36z"/><glyph unicode="ā" horiz-adv-x="547" d="M226-10c-35 0-67 7-94 21-28 13-50 32-65 55-16 23-24 50-24 79 0 36 9 65 28 86s49 36 91 45 98 14 169 14h35v21c0 33-7 57-22 72s-39 22-74 22c-19 0-40-2-62-7-23-5-46-13-71-24-16-7-29-8-40-2-11 5-18 14-21 27-4 12-3 24 2 37s15 22 30 28c31 13 60 22 89 27 28 5 54 8 77 8 71 0 124-16 159-49s52-85 52-154V56c0-43-19-64-58-64s-59 21-59 64v22c-11-27-29-49-54-64-25-16-54-24-88-24m26 86c33 0 60 11 82 34 21 23 32 51 32 86v22h-34c-63 0-106-5-130-14-25-10-37-28-37-53 0-22 8-40 23-54s37-21 64-21m-96 540c-26 0-39 12-39 37s13 37 39 37h247c26 0 39-12 39-37s-13-37-39-37z"/><glyph unicode="ą" horiz-adv-x="547" d="M429-195c-37 0-65 9-86 28s-32 44-32 76c0 21 6 42 17 62 11 19 27 36 47 50-5 9-7 21-7 35v22c-11-27-29-49-54-64-25-16-54-24-88-24-35 0-67 7-94 21-28 13-50 32-65 55-16 23-24 50-24 79 0 36 9 65 28 86s49 36 91 45 98 14 169 14h35v21c0 33-7 57-22 72s-39 22-74 22c-19 0-40-2-62-7-23-5-46-13-71-24-16-7-29-8-40-2-11 5-18 14-21 27-4 12-3 24 2 37s15 22 30 28c31 13 60 22 89 27 28 5 54 8 77 8 71 0 124-16 159-49s52-85 52-154V56c0-18-3-32-10-41S458-2 445-7c-15-7-28-16-39-28s-16-26-16-42c0-17 5-29 16-38s24-13 40-13c10 0 20 1 30 4 16 5 27 3 34-6s9-19 6-30c-3-12-11-21-24-26-11-4-21-6-32-7s-22-2-31-2M252 76c33 0 60 11 82 34 21 23 32 51 32 86v22h-34c-63 0-106-5-130-14-25-10-37-28-37-53 0-22 8-40 23-54s37-21 64-21z"/><glyph unicode="å" horiz-adv-x="547" d="M226-10c-35 0-67 7-94 21-28 13-50 32-65 55-16 23-24 50-24 79 0 36 9 65 28 86s49 36 91 45 98 14 169 14h35v21c0 33-7 57-22 72s-39 22-74 22c-19 0-40-2-62-7-23-5-46-13-71-24-16-7-29-8-40-2-11 5-18 14-21 27-4 12-3 24 2 37s15 22 30 28c31 13 60 22 89 27 28 5 54 8 77 8 71 0 124-16 159-49s52-85 52-154V56c0-43-19-64-58-64s-59 21-59 64v22c-11-27-29-49-54-64-25-16-54-24-88-24m26 86c33 0 60 11 82 34 21 23 32 51 32 86v22h-34c-63 0-106-5-130-14-25-10-37-28-37-53 0-22 8-40 23-54s37-21 64-21m27 470c-23 0-45 6-64 17s-34 25-45 44-17 39-17 62c0 35 12 64 37 87 24 23 54 35 89 35s65-12 90-35c24-23 36-52 36-87 0-23-5-43-16-62s-26-33-45-44-41-17-65-17m0 57c19 0 35 6 47 19s18 28 18 47-6 34-18 47c-12 12-28 18-47 18s-34-6-46-18c-13-13-19-28-19-47s6-34 19-47c12-13 27-19 46-19z"/><glyph unicode="ǻ" horiz-adv-x="547" d="M226-10c-35 0-67 7-94 21-28 13-50 32-65 55-16 23-24 50-24 79 0 36 9 65 28 86s49 36 91 45 98 14 169 14h35v21c0 33-7 57-22 72s-39 22-74 22c-19 0-40-2-62-7-23-5-46-13-71-24-16-7-29-8-40-2-11 5-18 14-21 27-4 12-3 24 2 37s15 22 30 28c31 13 60 22 89 27 28 5 54 8 77 8 71 0 124-16 159-49s52-85 52-154V56c0-43-19-64-58-64s-59 21-59 64v22c-11-27-29-49-54-64-25-16-54-24-88-24m26 86c33 0 60 11 82 34 21 23 32 51 32 86v22h-34c-63 0-106-5-130-14-25-10-37-28-37-53 0-22 8-40 23-54s37-21 64-21m27 465c-34 0-63 11-86 34s-35 50-35 83 12 61 35 84 52 34 86 34c12 0 23-2 34-5s21-8 30-13l69 64c9 8 18 12 27 11s16-5 22-11c6-7 9-14 10-22 1-9-3-17-12-24l-73-62c9-17 14-36 14-56 0-33-12-60-35-83s-52-34-86-34m0 53c19 0 35 6 47 18s18 27 18 46-6 35-18 47-28 18-47 18-34-6-46-18c-13-12-19-28-19-47s6-34 19-46c12-12 27-18 46-18z"/><glyph unicode="ã" horiz-adv-x="547" d="M226-10c-35 0-67 7-94 21-28 13-50 32-65 55-16 23-24 50-24 79 0 36 9 65 28 86s49 36 91 45 98 14 169 14h35v21c0 33-7 57-22 72s-39 22-74 22c-19 0-40-2-62-7-23-5-46-13-71-24-16-7-29-8-40-2-11 5-18 14-21 27-4 12-3 24 2 37s15 22 30 28c31 13 60 22 89 27 28 5 54 8 77 8 71 0 124-16 159-49s52-85 52-154V56c0-43-19-64-58-64s-59 21-59 64v22c-11-27-29-49-54-64-25-16-54-24-88-24m26 86c33 0 60 11 82 34 21 23 32 51 32 86v22h-34c-63 0-106-5-130-14-25-10-37-28-37-53 0-22 8-40 23-54s37-21 64-21M116 581c-10 1-18 4-23 10s-7 15-4 28c3 19 10 37 19 55 9 17 21 32 37 44s36 18 60 18c17 0 31-3 44-10s24-14 35-23 21-16 32-23 22-10 35-10c14 0 26 5 37 15 10 9 16 21 19 36s15 23 35 22c10-1 18-4 23-10s7-15 4-28c-3-18-10-36-19-54s-22-33-37-45c-16-12-36-18-60-18-17 0-31 3-44 10s-24 14-35 23-22 16-33 23-22 10-34 10c-14 0-26-5-36-14s-17-22-20-37-15-23-35-22z"/><glyph unicode="æ" horiz-adv-x="865" d="M236-10c-39 0-72 7-101 21-29 13-52 32-68 55s-24 50-24 79c0 36 9 65 28 86s49 36 92 45c42 9 99 14 171 14h32v21c0 33-7 57-22 72s-40 22-73 22c-19 0-40-2-62-7-23-5-46-13-71-24-16-7-29-8-40-2-11 5-18 14-21 27-4 12-3 24 2 37s15 22 30 28c31 13 60 22 89 27 28 5 54 8 77 8 82 0 138-26 167-77 19 25 44 45 75 58 30 13 61 19 92 19 68 0 122-22 162-65 40-44 60-104 60-180v-2c0-23-16-34-48-34H487c9-89 57-133 146-133 17 0 37 2 59 7 21 4 42 11 61 22 17 10 32 13 44 10 12-4 21-11 26-22s5-22 2-35c-4-13-14-25-29-34-23-15-50-25-80-32-31-7-59-11-85-11-49 0-93 9-130 27s-66 45-85 82c-15-35-37-61-68-80s-69-29-112-29m376 424c-35 0-63-11-84-32-22-21-35-52-40-92h239c-3 40-14 71-33 92s-47 32-82 32M253 76c33 0 61 12 82 35s31 52 31 89v18h-34c-63 0-106-5-130-14-25-10-37-28-37-53 0-22 8-40 23-54s37-21 65-21z"/><glyph unicode="ǽ" horiz-adv-x="865" d="M236-10c-39 0-72 7-101 21-29 13-52 32-68 55s-24 50-24 79c0 36 9 65 28 86s49 36 92 45c42 9 99 14 171 14h32v21c0 33-7 57-22 72s-40 22-73 22c-19 0-40-2-62-7-23-5-46-13-71-24-16-7-29-8-40-2-11 5-18 14-21 27-4 12-3 24 2 37s15 22 30 28c31 13 60 22 89 27 28 5 54 8 77 8 82 0 138-26 167-77 19 25 44 45 75 58 30 13 61 19 92 19 68 0 122-22 162-65 40-44 60-104 60-180v-2c0-23-16-34-48-34H487c9-89 57-133 146-133 17 0 37 2 59 7 21 4 42 11 61 22 17 10 32 13 44 10 12-4 21-11 26-22s5-22 2-35c-4-13-14-25-29-34-23-15-50-25-80-32-31-7-59-11-85-11-49 0-93 9-130 27s-66 45-85 82c-15-35-37-61-68-80s-69-29-112-29m376 424c-35 0-63-11-84-32-22-21-35-52-40-92h239c-3 40-14 71-33 92s-47 32-82 32M253 76c33 0 61 12 82 35s31 52 31 89v18h-34c-63 0-106-5-130-14-25-10-37-28-37-53 0-22 8-40 23-54s37-21 65-21m209 484c-7-9-15-15-24-16s-18 0-27 5-15 11-18 20c-4 9-3 18 2 29l76 149c7 15 18 24 31 27 13 2 26 0 39-7 12-7 20-16 25-28 5-13 2-26-7-39z"/><glyph unicode="b" horiz-adv-x="600" d="M347-10c-36 0-68 8-96 24-28 15-49 36-63 63V56c0-43-20-64-61-64S65 13 65 56v594c0 42 21 63 62 63 42 0 63-21 63-63V417c15 25 36 45 64 60 27 15 58 22 93 22 43 0 81-10 113-31s57-50 75-87c18-38 27-83 27-136 0-52-9-97-27-135-18-39-43-68-75-89-33-21-70-31-113-31m-35 95c37 0 67 14 90 41s34 66 34 119-11 93-34 120c-23 26-53 39-90 39s-67-13-90-39c-23-27-34-67-34-120s11-92 34-119 53-41 90-41z"/><glyph unicode="ɓ" horiz-adv-x="600" d="M347-10c-36 0-68 8-96 24-28 15-49 36-63 63V56c0-43-20-64-61-64S65 13 65 56v465c0 59 16 107 49 142s80 52 143 52c28 0 48-5 59-14s17-22 17-37c0-16-3-29-9-38s-15-13-26-12c-3 1-7 1-11 2h-16c-25 0-44-8-59-23-15-16-22-40-22-71V417c15 25 36 45 64 60 27 15 58 22 93 22 43 0 81-10 113-31s57-50 75-87c18-38 27-83 27-136 0-52-9-97-27-135-18-39-43-68-75-89-33-21-70-31-113-31m-35 95c37 0 67 14 90 41s34 66 34 119-11 93-34 120c-23 26-53 39-90 39s-67-13-90-39c-23-27-34-67-34-120s11-92 34-119 53-41 90-41z"/><glyph unicode="c" horiz-adv-x="472" d="M291-10c-51 0-96 11-134 32s-67 50-88 89-31 84-31 136 10 97 31 135c21 37 50 66 88 87 38 20 83 30 134 30 22 0 46-3 72-9 25-6 49-16 72-30 13-8 21-18 24-31 2-13 0-24-5-35-6-11-14-18-25-23s-24-3-38 5c-31 17-60 26-89 26-43 0-77-13-100-40-24-27-36-66-36-116 0-49 12-88 36-116 23-29 57-43 100-43 29 0 58 8 89 25 14 8 26 10 37 5s18-12 23-23 6-23 3-35c-3-13-10-23-23-31-22-13-45-23-70-29s-48-9-70-9z"/><glyph unicode="ć" horiz-adv-x="472" d="M291-10c-51 0-96 11-134 32s-67 50-88 89-31 84-31 136 10 97 31 135c21 37 50 66 88 87 38 20 83 30 134 30 22 0 46-3 72-9 25-6 49-16 72-30 13-8 21-18 24-31 2-13 0-24-5-35-6-11-14-18-25-23s-24-3-38 5c-31 17-60 26-89 26-43 0-77-13-100-40-24-27-36-66-36-116 0-49 12-88 36-116 23-29 57-43 100-43 29 0 58 8 89 25 14 8 26 10 37 5s18-12 23-23 6-23 3-35c-3-13-10-23-23-31-22-13-45-23-70-29s-48-9-70-9m40 570c-7-9-15-15-24-16s-18 0-27 5-15 11-18 20c-4 9-3 18 2 29l76 149c7 15 18 24 31 27 13 2 26 0 39-7 12-7 20-16 25-28 5-13 2-26-7-39z"/><glyph unicode="č" horiz-adv-x="472" d="M291-10c-51 0-96 11-134 32s-67 50-88 89-31 84-31 136 10 97 31 135c21 37 50 66 88 87 38 20 83 30 134 30 22 0 46-3 72-9 25-6 49-16 72-30 13-8 21-18 24-31 2-13 0-24-5-35-6-11-14-18-25-23s-24-3-38 5c-31 17-60 26-89 26-43 0-77-13-100-40-24-27-36-66-36-116 0-49 12-88 36-116 23-29 57-43 100-43 29 0 58 8 89 25 14 8 26 10 37 5s18-12 23-23 6-23 3-35c-3-13-10-23-23-31-22-13-45-23-70-29s-48-9-70-9m-7 546c-30 0-53 16-70 47l-72 131c-6 11-7 20-4 29s9 15 17 20c8 4 17 5 26 4s16-7 22-16l81-126 81 126c6 9 14 15 23 16s17 0 25-4c8-5 14-11 17-20s2-18-4-29l-71-131c-17-31-40-47-71-47z"/><glyph unicode="ç" horiz-adv-x="472" d="M291-10c-51 0-96 11-134 32s-67 50-88 89-31 84-31 136 10 97 31 135c21 37 50 66 88 87 38 20 83 30 134 30 22 0 46-3 72-9 25-6 49-16 72-30 13-8 21-18 24-31 2-13 0-24-5-35-6-11-14-18-25-23s-24-3-38 5c-31 17-60 26-89 26-43 0-77-13-100-40-24-27-36-66-36-116 0-49 12-88 36-116 23-29 57-43 100-43 29 0 58 8 89 25 14 8 26 10 37 5s18-12 23-23 6-23 3-35c-3-13-10-23-23-31-22-13-45-23-70-29s-48-9-70-9m-6-185c-13 0-26 1-40 3-14 1-27 4-38 8-13 5-21 13-23 24s1 21 9 29c7 8 18 9 31 4 15-5 32-8 51-8 36 0 54 10 54 30 0 15-12 23-37 23h-14c-5-1-11-2-16-3-9-3-17-2-23 3-5 5-7 13-5 26l11 76h67l-10-58c4 1 8 1 11 1 27 0 49-6 66-19s25-30 25-53c0-26-11-47-33-62-22-16-51-24-86-24z"/><glyph unicode="ḉ" horiz-adv-x="472" d="M291-10c-51 0-96 11-134 32s-67 50-88 89-31 84-31 136 10 97 31 135c21 37 50 66 88 87 38 20 83 30 134 30 22 0 46-3 72-9 25-6 49-16 72-30 13-8 21-18 24-31 2-13 0-24-5-35-6-11-14-18-25-23s-24-3-38 5c-31 17-60 26-89 26-43 0-77-13-100-40-24-27-36-66-36-116 0-49 12-88 36-116 23-29 57-43 100-43 29 0 58 8 89 25 14 8 26 10 37 5s18-12 23-23 6-23 3-35c-3-13-10-23-23-31-22-13-45-23-70-29s-48-9-70-9m-6-185c-13 0-26 1-40 3-14 1-27 4-38 8-13 5-21 13-23 24s1 21 9 29c7 8 18 9 31 4 15-5 32-8 51-8 36 0 54 10 54 30 0 15-12 23-37 23h-14c-5-1-11-2-16-3-9-3-17-2-23 3-5 5-7 13-5 26l11 76h67l-10-58c4 1 8 1 11 1 27 0 49-6 66-19s25-30 25-53c0-26-11-47-33-62-22-16-51-24-86-24m46 755c-7-9-15-15-24-16s-18 0-27 5-15 11-18 20c-4 9-3 18 2 29l76 149c7 15 18 24 31 27 13 2 26 0 39-7 12-7 20-16 25-28 5-13 2-26-7-39z"/><glyph unicode="ĉ" horiz-adv-x="472" d="M291-10c-51 0-96 11-134 32s-67 50-88 89-31 84-31 136 10 97 31 135c21 37 50 66 88 87 38 20 83 30 134 30 22 0 46-3 72-9 25-6 49-16 72-30 13-8 21-18 24-31 2-13 0-24-5-35-6-11-14-18-25-23s-24-3-38 5c-31 17-60 26-89 26-43 0-77-13-100-40-24-27-36-66-36-116 0-49 12-88 36-116 23-29 57-43 100-43 29 0 58 8 89 25 14 8 26 10 37 5s18-12 23-23 6-23 3-35c-3-13-10-23-23-31-22-13-45-23-70-29s-48-9-70-9m135 607c6-11 7-20 4-29s-9-15-17-19c-8-5-16-6-25-5s-17 7-23 16l-81 126-81-126c-6-9-13-15-22-16s-18 0-26 5c-8 4-14 10-17 19s-2 18 4 29l72 132c16 30 39 45 70 45s55-15 71-45z"/><glyph unicode="ċ" horiz-adv-x="472" d="M291-10c-51 0-96 11-134 32s-67 50-88 89-31 84-31 136 10 97 31 135c21 37 50 66 88 87 38 20 83 30 134 30 22 0 46-3 72-9 25-6 49-16 72-30 13-8 21-18 24-31 2-13 0-24-5-35-6-11-14-18-25-23s-24-3-38 5c-31 17-60 26-89 26-43 0-77-13-100-40-24-27-36-66-36-116 0-49 12-88 36-116 23-29 57-43 100-43 29 0 58 8 89 25 14 8 26 10 37 5s18-12 23-23 6-23 3-35c-3-13-10-23-23-31-22-13-45-23-70-29s-48-9-70-9m-7 603c-43 0-65 21-65 63 0 41 22 62 65 62 44 0 66-21 66-62 0-42-22-63-66-63z"/><glyph unicode="d" horiz-adv-x="600" d="M253-10c-43 0-80 10-112 31-33 21-58 50-76 89-18 38-27 83-27 135 0 53 9 98 27 136 18 37 43 66 76 87 32 21 69 31 112 31 35 0 66-8 94-23s49-36 63-61v235c0 42 21 63 62 63 42 0 63-21 63-63V56c0-43-21-64-62-64s-62 21-62 64v21c-14-27-35-48-63-63-28-16-60-24-95-24m35 95c37 0 67 14 90 41s34 66 34 119-11 93-34 120c-23 26-53 39-90 39s-67-13-90-39c-23-27-34-67-34-120s11-92 34-119 53-41 90-41z"/><glyph unicode="ð" horiz-adv-x="581" d="M283-10c-49 0-91 10-128 30-37 19-65 46-86 81s-31 75-31 121c0 45 10 85 30 119s48 61 83 80 76 29 122 29c30 0 57-4 82-13 24-9 44-24 61-43-9 35-24 67-44 94s-42 50-67 68l-134-61c-15-7-27-8-38-4s-19 11-23 20c-5 9-5 20 0 31 4 11 14 19 30 26l81 37c-9 4-18 8-27 11l-30 9c-16 5-27 12-33 23-6 10-8 20-5 31s9 19 20 25c10 6 24 7 41 3 27-6 52-14 75-23s44-20 65-31l106 48c15 7 28 8 39 4s18-11 23-20 5-19 2-29c-4-11-14-19-29-26l-66-30c45-39 79-85 104-138s37-111 37-174c0-94-22-167-67-219-45-53-110-79-193-79m4 96c39 0 70 12 92 37 21 25 32 58 32 99s-11 74-32 98c-22 24-53 36-92 36-38 0-68-12-90-36s-33-57-33-98c0-43 11-76 33-100 21-24 51-36 90-36z"/><glyph unicode="ď" horiz-adv-x="600" d="M253-10c-43 0-80 10-112 31-33 21-58 50-76 89-18 38-27 83-27 135 0 53 9 98 27 136 18 37 43 66 76 87 32 21 69 31 112 31 35 0 66-8 94-23s49-36 63-61v235c0 42 21 63 62 63 42 0 63-21 63-63V56c0-43-21-64-62-64s-62 21-62 64v21c-14-27-35-48-63-63-28-16-60-24-95-24m35 95c37 0 67 14 90 41s34 66 34 119-11 93-34 120c-23 26-53 39-90 39s-67-13-90-39c-23-27-34-67-34-120s11-92 34-119 53-41 90-41m317 421c-19 0-29 10-29 31v134c0 28 14 42 42 42 29 0 41-15 37-44l-18-134c-3-19-14-29-32-29z"/><glyph unicode="đ" horiz-adv-x="600" d="M254-10c-43 0-80 10-112 31-33 21-58 50-76 89-18 38-27 83-27 135 0 53 9 98 27 136 18 37 43 66 76 87 32 21 69 31 112 31 35 0 66-8 94-23s49-36 63-61v129H264c-31 0-47 15-47 44s16 44 47 44h147v28c0 15 5 28 16 38s26 15 46 15 36-5 47-15 16-23 16-38v-28h46c31 0 46-15 46-44s-15-44-46-44h-46V56c0-43-21-64-62-64s-62 21-62 64v21c-14-27-35-48-62-63-28-16-60-24-96-24m35 95c37 0 67 14 90 41s34 66 34 119-11 93-34 120c-23 26-53 39-90 39s-67-13-90-39c-23-27-34-67-34-120s11-92 34-119 53-41 90-41z"/><glyph unicode="ḍ" horiz-adv-x="600" d="M253-10c-43 0-80 10-112 31-33 21-58 50-76 89-18 38-27 83-27 135 0 53 9 98 27 136 18 37 43 66 76 87 32 21 69 31 112 31 35 0 66-8 94-23s49-36 63-61v235c0 42 21 63 62 63 42 0 63-21 63-63V56c0-43-21-64-62-64s-62 21-62 64v21c-14-27-35-48-63-63-28-16-60-24-95-24m35 95c37 0 67 14 90 41s34 66 34 119-11 93-34 120c-23 26-53 39-90 39s-67-13-90-39c-23-27-34-67-34-120s11-92 34-119 53-41 90-41m14-294c-43 0-65 21-65 63 0 41 22 62 65 62 44 0 66-21 66-62 0-42-22-63-66-63z"/><glyph unicode="ɗ" horiz-adv-x="600" d="M253-10c-43 0-80 10-112 31-33 21-58 50-76 89-18 38-27 83-27 135 0 53 9 98 27 136 18 37 43 66 76 87 32 21 69 31 112 31 35 0 66-8 94-23s49-36 63-61v106c0 59 16 107 49 142s80 52 143 52c28 0 48-5 59-14s17-22 17-37c0-16-3-29-9-38s-15-13-26-12c-3 1-7 1-11 2h-16c-25 0-44-8-59-23-15-16-22-40-22-71V56c0-43-21-64-62-64s-62 21-62 64v21c-14-27-35-48-63-63-28-16-60-24-95-24m35 96c37 0 67 13 90 40s34 66 34 119-11 93-34 120c-23 26-53 39-90 39s-67-13-90-39c-23-27-34-67-34-120s11-92 34-119 53-40 90-40z"/><glyph unicode="ḏ" horiz-adv-x="600" d="M253-10c-43 0-80 10-112 31-33 21-58 50-76 89-18 38-27 83-27 135 0 53 9 98 27 136 18 37 43 66 76 87 32 21 69 31 112 31 35 0 66-8 94-23s49-36 63-61v235c0 42 21 63 62 63 42 0 63-21 63-63V56c0-43-21-64-62-64s-62 21-62 64v21c-14-27-35-48-63-63-28-16-60-24-95-24m35 95c37 0 67 14 90 41s34 66 34 119-11 93-34 120c-23 26-53 39-90 39s-67-13-90-39c-23-27-34-67-34-120s11-92 34-119 53-41 90-41M179-165c-26 0-39 12-39 37s13 37 39 37h247c26 0 39-12 39-37s-13-37-39-37z"/><glyph unicode="ǆ" horiz-adv-x="1074" d="M853-10c-43 0-80 10-112 31-33 21-58 50-76 89-18 38-27 83-27 135 0 53 9 98 27 136 18 37 43 66 76 87 32 21 69 31 112 31 35 0 66-8 94-23s49-36 63-61v235c0 42 21 63 62 63 42 0 63-21 63-63V56c0-43-21-64-62-64s-62 21-62 64v21c-14-27-35-48-63-63-28-16-60-24-95-24m35 95c37 0 67 14 90 41s34 66 34 119-11 93-34 120c-23 26-53 39-90 39s-67-13-90-39c-23-27-34-67-34-120s11-92 34-119 53-41 90-41M695 0c-17 0-30 6-39 17s-12 24-11 39 8 30 21 44l235 295H689c-32 0-48 16-48 47s16 47 48 47h296c20 0 35-5 45-16 9-11 14-23 13-38s-8-30-21-44L784 94h224c32 0 48-16 48-47s-16-47-48-47M843 536c-30 0-53 16-70 47l-72 131c-6 11-7 20-4 29s9 15 17 20c8 4 17 5 26 4s16-7 22-16l81-126 81 126c6 9 14 15 23 16s17 0 25-4c8-5 14-11 17-20s2-18-4-29l-71-131c-17-31-40-47-71-47z"/><glyph unicode="e" horiz-adv-x="542" d="M306-10c-55 0-103 10-143 31s-71 50-92 88c-22 38-33 83-33 135 0 51 11 95 32 133s50 68 87 90c37 21 79 32 126 32 69 0 124-22 165-66 40-44 60-104 60-180 0-25-16-37-48-37H158c9-87 59-131 150-131 17 0 37 2 59 7 21 4 42 11 61 22 17 10 32 13 44 10 12-4 21-11 26-22s5-22 2-35c-4-13-14-25-29-34-23-15-50-25-80-32-31-7-59-11-85-11m-18 424c-37 0-66-11-89-34s-36-53-41-92h246c-3 41-14 72-33 94-20 21-48 32-83 32z"/><glyph unicode="é" horiz-adv-x="542" d="M306-10c-55 0-103 10-143 31s-71 50-92 88c-22 38-33 83-33 135 0 51 11 95 32 133s50 68 87 90c37 21 79 32 126 32 69 0 124-22 165-66 40-44 60-104 60-180 0-25-16-37-48-37H158c9-87 59-131 150-131 17 0 37 2 59 7 21 4 42 11 61 22 17 10 32 13 44 10 12-4 21-11 26-22s5-22 2-35c-4-13-14-25-29-34-23-15-50-25-80-32-31-7-59-11-85-11m-18 424c-37 0-66-11-89-34s-36-53-41-92h246c-3 41-14 72-33 94-20 21-48 32-83 32m43 146c-7-9-15-15-24-16s-18 0-27 5-15 11-18 20c-4 9-3 18 2 29l76 149c7 15 18 24 31 27 13 2 26 0 39-7 12-7 20-16 25-28 5-13 2-26-7-39z"/><glyph unicode="ĕ" horiz-adv-x="542" d="M306-10c-55 0-103 10-143 31s-71 50-92 88c-22 38-33 83-33 135 0 51 11 95 32 133s50 68 87 90c37 21 79 32 126 32 69 0 124-22 165-66 40-44 60-104 60-180 0-25-16-37-48-37H158c9-87 59-131 150-131 17 0 37 2 59 7 21 4 42 11 61 22 17 10 32 13 44 10 12-4 21-11 26-22s5-22 2-35c-4-13-14-25-29-34-23-15-50-25-80-32-31-7-59-11-85-11m-18 424c-37 0-66-11-89-34s-36-53-41-92h246c-3 41-14 72-33 94-20 21-48 32-83 32m-4 137c-47 0-84 15-111 45-27 29-45 66-52 111-2 13 0 24 7 33 6 8 14 12 25 13 23 1 37-11 41-36 5-30 16-52 32-67s35-23 58-23 42 8 59 23c16 15 26 37 31 67 4 25 18 37 41 36 11-1 20-5 26-13 6-9 8-20 6-33-7-45-24-82-51-111-27-30-65-45-112-45z"/><glyph unicode="ě" horiz-adv-x="542" d="M306-10c-55 0-103 10-143 31s-71 50-92 88c-22 38-33 83-33 135 0 51 11 95 32 133s50 68 87 90c37 21 79 32 126 32 69 0 124-22 165-66 40-44 60-104 60-180 0-25-16-37-48-37H158c9-87 59-131 150-131 17 0 37 2 59 7 21 4 42 11 61 22 17 10 32 13 44 10 12-4 21-11 26-22s5-22 2-35c-4-13-14-25-29-34-23-15-50-25-80-32-31-7-59-11-85-11m-18 424c-37 0-66-11-89-34s-36-53-41-92h246c-3 41-14 72-33 94-20 21-48 32-83 32m-4 122c-30 0-53 16-70 47l-72 131c-6 11-7 20-4 29s9 15 17 20c8 4 17 5 26 4s16-7 22-16l81-126 81 126c6 9 14 15 23 16s17 0 25-4c8-5 14-11 17-20s2-18-4-29l-71-131c-17-31-40-47-71-47z"/><glyph unicode="ḝ" horiz-adv-x="542" d="M306-10c-55 0-103 10-143 31s-71 50-92 88c-22 38-33 83-33 135 0 51 11 95 32 133s50 68 87 90c37 21 79 32 126 32 69 0 124-22 165-66 40-44 60-104 60-180 0-25-16-37-48-37H158c9-87 59-131 150-131 17 0 37 2 59 7 21 4 42 11 61 22 17 10 32 13 44 10 12-4 21-11 26-22s5-22 2-35c-4-13-14-25-29-34-23-15-50-25-80-32-31-7-59-11-85-11m-18 424c-37 0-66-11-89-34s-36-53-41-92h246c-3 41-14 72-33 94-20 21-48 32-83 32m-3-609c-13 0-26 1-40 3-14 1-27 4-38 8-13 5-21 13-23 24s1 21 9 29c7 8 18 9 31 4 15-5 32-8 51-8 36 0 54 10 54 30 0 15-12 23-37 23h-14c-5-1-11-2-16-3-9-3-17-2-23 3-5 5-7 13-5 26l11 76h67l-10-58c4 1 8 1 11 1 27 0 49-6 66-19s25-30 25-53c0-26-11-47-33-62-22-16-51-24-86-24m-1 746c-47 0-84 15-111 45-27 29-45 66-52 111-2 13 0 24 7 33 6 8 14 12 25 13 23 1 37-11 41-36 5-30 16-52 32-67s35-23 58-23 42 8 59 23c16 15 26 37 31 67 4 25 18 37 41 36 11-1 20-5 26-13 6-9 8-20 6-33-7-45-24-82-51-111-27-30-65-45-112-45z"/><glyph unicode="ê" horiz-adv-x="542" d="M306-10c-55 0-103 10-143 31s-71 50-92 88c-22 38-33 83-33 135 0 51 11 95 32 133s50 68 87 90c37 21 79 32 126 32 69 0 124-22 165-66 40-44 60-104 60-180 0-25-16-37-48-37H158c9-87 59-131 150-131 17 0 37 2 59 7 21 4 42 11 61 22 17 10 32 13 44 10 12-4 21-11 26-22s5-22 2-35c-4-13-14-25-29-34-23-15-50-25-80-32-31-7-59-11-85-11m-18 424c-37 0-66-11-89-34s-36-53-41-92h246c-3 41-14 72-33 94-20 21-48 32-83 32m138 183c6-11 7-20 4-29s-9-15-17-19c-8-5-16-6-25-5s-17 7-23 16l-81 126-81-126c-6-9-13-15-22-16s-18 0-26 5c-8 4-14 10-17 19s-2 18 4 29l72 132c16 30 39 45 70 45s55-15 71-45z"/><glyph unicode="ế" horiz-adv-x="542" d="M306-10c-55 0-103 10-143 31s-71 50-92 88c-22 38-33 83-33 135 0 51 11 95 32 133s50 68 87 90c37 21 79 32 126 32 69 0 124-22 165-66 40-44 60-104 60-180 0-25-16-37-48-37H158c9-87 59-131 150-131 17 0 37 2 59 7 21 4 42 11 61 22 17 10 32 13 44 10 12-4 21-11 26-22s5-22 2-35c-4-13-14-25-29-34-23-15-50-25-80-32-31-7-59-11-85-11m-18 424c-37 0-66-11-89-34s-36-53-41-92h246c-3 41-14 72-33 94-20 21-48 32-83 32m171 240c-8-10-17-14-28-13s-19 6-24 15c-6 9-5 20 2 33l62 110c7 13 17 21 28 23 11 1 22-1 32-6 9-6 16-14 19-25s-1-22-10-34M203 558c-11-12-22-17-34-15-12 1-21 7-26 18-6 10-5 21 4 34l65 97c10 15 21 25 33 31 11 5 24 8 39 8s29-3 41-8c11-6 22-16 31-31l65-97c9-13 10-24 5-34-5-11-14-17-25-18-12-2-24 3-35 15l-82 91z"/><glyph unicode="ệ" horiz-adv-x="542" d="M306-10c-55 0-103 10-143 31s-71 50-92 88c-22 38-33 83-33 135 0 51 11 95 32 133s50 68 87 90c37 21 79 32 126 32 69 0 124-22 165-66 40-44 60-104 60-180 0-25-16-37-48-37H158c9-87 59-131 150-131 17 0 37 2 59 7 21 4 42 11 61 22 17 10 32 13 44 10 12-4 21-11 26-22s5-22 2-35c-4-13-14-25-29-34-23-15-50-25-80-32-31-7-59-11-85-11m-18 424c-37 0-66-11-89-34s-36-53-41-92h246c-3 41-14 72-33 94-20 21-48 32-83 32m-4-623c-43 0-65 21-65 63 0 41 22 62 65 62 44 0 66-21 66-62 0-42-22-63-66-63m142 806c6-11 7-20 4-29s-9-15-17-19c-8-5-16-6-25-5s-17 7-23 16l-81 126-81-126c-6-9-13-15-22-16s-18 0-26 5c-8 4-14 10-17 19s-2 18 4 29l72 132c16 30 39 45 70 45s55-15 71-45z"/><glyph unicode="ề" horiz-adv-x="542" d="M306-10c-55 0-103 10-143 31s-71 50-92 88c-22 38-33 83-33 135 0 51 11 95 32 133s50 68 87 90c37 21 79 32 126 32 69 0 124-22 165-66 40-44 60-104 60-180 0-25-16-37-48-37H158c9-87 59-131 150-131 17 0 37 2 59 7 21 4 42 11 61 22 17 10 32 13 44 10 12-4 21-11 26-22s5-22 2-35c-4-13-14-25-29-34-23-15-50-25-80-32-31-7-59-11-85-11m-18 424c-37 0-66-11-89-34s-36-53-41-92h246c-3 41-14 72-33 94-20 21-48 32-83 32m150 240l-81 103c-9 12-12 23-9 34s9 19 19 25c9 5 20 7 31 6 11-2 21-10 28-23l62-110c7-13 8-24 3-33-6-9-14-14-25-15s-20 3-28 13m-235-96c-11-12-22-17-34-15-12 1-21 7-26 18-6 10-5 21 4 34l65 97c10 15 21 25 33 31 11 5 24 8 39 8s29-3 41-8c11-6 22-16 31-31l65-97c9-13 10-24 5-34-5-11-14-17-25-18-12-2-24 3-35 15l-82 91z"/><glyph unicode="ể" horiz-adv-x="542" d="M306-10c-55 0-103 10-143 31s-71 50-92 88c-22 38-33 83-33 135 0 51 11 95 32 133s50 68 87 90c37 21 79 32 126 32 69 0 124-22 165-66 40-44 60-104 60-180 0-25-16-37-48-37H158c9-87 59-131 150-131 17 0 37 2 59 7 21 4 42 11 61 22 17 10 32 13 44 10 12-4 21-11 26-22s5-22 2-35c-4-13-14-25-29-34-23-15-50-25-80-32-31-7-59-11-85-11m-18 424c-37 0-66-11-89-34s-36-53-41-92h246c-3 41-14 72-33 94-20 21-48 32-83 32m157 240c-9-5-17-5-26-2s-14 8-16 15c-3 7 0 14 8 21 11 9 19 17 26 24 6 7 9 15 9 24 0 16-12 24-37 24-5 0-10 0-15-1l-18-3c-19-5-31 0-36 15-5 17 2 28 21 34 11 3 23 6 36 7 12 1 25 2 38 2 29 0 52-5 69-14 16-9 24-24 24-45 0-13-4-26-13-39s-19-25-32-35c-13-11-25-20-38-27m-242-96c-11-12-22-17-34-15-12 1-21 7-26 18-6 10-5 21 4 34l65 97c10 15 21 25 33 31 11 5 24 8 39 8s29-3 41-8c11-6 22-16 31-31l65-97c9-13 10-24 5-34-5-11-14-17-25-18-12-2-24 3-35 15l-82 91z"/><glyph unicode="ễ" horiz-adv-x="542" d="M306-10c-55 0-103 10-143 31s-71 50-92 88c-22 38-33 83-33 135 0 51 11 95 32 133s50 68 87 90c37 21 79 32 126 32 69 0 124-22 165-66 40-44 60-104 60-180 0-25-16-37-48-37H158c9-87 59-131 150-131 17 0 37 2 59 7 21 4 42 11 61 22 17 10 32 13 44 10 12-4 21-11 26-22s5-22 2-35c-4-13-14-25-29-34-23-15-50-25-80-32-31-7-59-11-85-11m-18 424c-37 0-66-11-89-34s-36-53-41-92h246c-3 41-14 72-33 94-20 21-48 32-83 32M143 710c-9 1-16 4-21 11s-7 15-4 26c7 25 19 43 37 56 17 13 38 19 63 19 18 0 34-4 49-11s29-15 42-22 25-11 38-11c10 0 19 2 27 6 8 3 14 9 17 18 6 15 18 23 35 22 9-1 17-4 22-10 5-7 6-16 3-27-7-25-19-43-36-56-18-13-39-19-64-19-18 0-34 4-49 11s-29 15-42 22-25 11-38 11c-10 0-19-2-27-5-8-4-14-10-17-19-6-15-18-23-35-22m51-158c-11-9-21-11-31-8-11 3-18 9-21 18-4 9-2 18 6 27l59 70c11 13 23 23 36 28s26 7 41 7 30-2 43-7 24-15 35-28l58-70c8-9 10-19 7-28-4-9-11-15-21-18s-21 0-32 9l-90 74z"/><glyph unicode="ȅ" horiz-adv-x="542" d="M306-10c-55 0-103 10-143 31s-71 50-92 88c-22 38-33 83-33 135 0 51 11 95 32 133s50 68 87 90c37 21 79 32 126 32 69 0 124-22 165-66 40-44 60-104 60-180 0-25-16-37-48-37H158c9-87 59-131 150-131 17 0 37 2 59 7 21 4 42 11 61 22 17 10 32 13 44 10 12-4 21-11 26-22s5-22 2-35c-4-13-14-25-29-34-23-15-50-25-80-32-31-7-59-11-85-11m-18 424c-37 0-66-11-89-34s-36-53-41-92h246c-3 41-14 72-33 94-20 21-48 32-83 32M175 564l-65 148c-7 16-7 29 0 40 6 10 16 17 29 20s25 2 37-3 20-16 24-33l38-153c3-13 1-24-8-31s-19-10-30-8c-11 1-20 8-25 20m148 0l-65 148c-7 16-7 29 0 40 7 10 16 17 29 20s25 2 38-3c12-5 20-16 24-33l37-153c3-13 1-24-8-31s-19-10-30-8c-11 1-20 8-25 20z"/><glyph unicode="ë" horiz-adv-x="542" d="M306-10c-55 0-103 10-143 31s-71 50-92 88c-22 38-33 83-33 135 0 51 11 95 32 133s50 68 87 90c37 21 79 32 126 32 69 0 124-22 165-66 40-44 60-104 60-180 0-25-16-37-48-37H158c9-87 59-131 150-131 17 0 37 2 59 7 21 4 42 11 61 22 17 10 32 13 44 10 12-4 21-11 26-22s5-22 2-35c-4-13-14-25-29-34-23-15-50-25-80-32-31-7-59-11-85-11m-18 424c-37 0-66-11-89-34s-36-53-41-92h246c-3 41-14 72-33 94-20 21-48 32-83 32m91 179c-41 0-62 21-62 62s21 61 62 61 61-20 61-61-20-62-61-62m-189 0c-19 0-34 5-45 16s-17 26-17 46c0 19 6 34 17 45s26 16 45 16c41 0 62-20 62-61s-21-62-62-62z"/><glyph unicode="ė" horiz-adv-x="542" d="M306-10c-55 0-103 10-143 31s-71 50-92 88c-22 38-33 83-33 135 0 51 11 95 32 133s50 68 87 90c37 21 79 32 126 32 69 0 124-22 165-66 40-44 60-104 60-180 0-25-16-37-48-37H158c9-87 59-131 150-131 17 0 37 2 59 7 21 4 42 11 61 22 17 10 32 13 44 10 12-4 21-11 26-22s5-22 2-35c-4-13-14-25-29-34-23-15-50-25-80-32-31-7-59-11-85-11m-18 424c-37 0-66-11-89-34s-36-53-41-92h246c-3 41-14 72-33 94-20 21-48 32-83 32m-4 179c-43 0-65 21-65 63 0 41 22 62 65 62 44 0 66-21 66-62 0-42-22-63-66-63z"/><glyph unicode="ẹ" horiz-adv-x="542" d="M306-10c-55 0-103 10-143 31s-71 50-92 88c-22 38-33 83-33 135 0 51 11 95 32 133s50 68 87 90c37 21 79 32 126 32 69 0 124-22 165-66 40-44 60-104 60-180 0-25-16-37-48-37H158c9-87 59-131 150-131 17 0 37 2 59 7 21 4 42 11 61 22 17 10 32 13 44 10 12-4 21-11 26-22s5-22 2-35c-4-13-14-25-29-34-23-15-50-25-80-32-31-7-59-11-85-11m-18 424c-37 0-66-11-89-34s-36-53-41-92h246c-3 41-14 72-33 94-20 21-48 32-83 32m-4-623c-43 0-65 21-65 63 0 41 22 62 65 62 44 0 66-21 66-62 0-42-22-63-66-63z"/><glyph unicode="è" horiz-adv-x="542" d="M306-10c-55 0-103 10-143 31s-71 50-92 88c-22 38-33 83-33 135 0 51 11 95 32 133s50 68 87 90c37 21 79 32 126 32 69 0 124-22 165-66 40-44 60-104 60-180 0-25-16-37-48-37H158c9-87 59-131 150-131 17 0 37 2 59 7 21 4 42 11 61 22 17 10 32 13 44 10 12-4 21-11 26-22s5-22 2-35c-4-13-14-25-29-34-23-15-50-25-80-32-31-7-59-11-85-11m-18 424c-37 0-66-11-89-34s-36-53-41-92h246c-3 41-14 72-33 94-20 21-48 32-83 32m-50 146l-97 140c-9 14-12 27-7 39s13 21 25 28 25 9 38 7c13-3 24-12 32-27l75-149c5-11 6-20 3-29s-9-15-18-20-18-6-27-5-17 7-24 16z"/><glyph unicode="ẻ" horiz-adv-x="542" d="M306-10c-55 0-103 10-143 31s-71 50-92 88c-22 38-33 83-33 135 0 51 11 95 32 133s50 68 87 90c37 21 79 32 126 32 69 0 124-22 165-66 40-44 60-104 60-180 0-25-16-37-48-37H158c9-87 59-131 150-131 17 0 37 2 59 7 21 4 42 11 61 22 17 10 32 13 44 10 12-4 21-11 26-22s5-22 2-35c-4-13-14-25-29-34-23-15-50-25-80-32-31-7-59-11-85-11m-18 424c-37 0-66-11-89-34s-36-53-41-92h246c-3 41-14 72-33 94-20 21-48 32-83 32m-4 132c-25 0-38 9-38 27 0 15 3 27 9 37 5 9 12 18 19 25s14 13 20 20c5 6 8 13 8 22 0 17-13 25-40 25-5 0-11 0-17-1s-12-2-19-4c-11-3-20-4-26-2-7 1-12 6-15 15-7 19 0 33 21 42 12 5 25 8 40 10 14 2 29 3 44 3 33 0 60-6 79-18 19-13 28-31 28-54 0-17-4-30-11-40-8-11-17-20-26-27-10-7-19-15-26-23-8-9-12-19-12-32 0-17-13-25-38-25z"/><glyph unicode="ȇ" horiz-adv-x="542" d="M306-10c-55 0-103 10-143 31s-71 50-92 88c-22 38-33 83-33 135 0 51 11 95 32 133s50 68 87 90c37 21 79 32 126 32 69 0 124-22 165-66 40-44 60-104 60-180 0-25-16-37-48-37H158c9-87 59-131 150-131 17 0 37 2 59 7 21 4 42 11 61 22 17 10 32 13 44 10 12-4 21-11 26-22s5-22 2-35c-4-13-14-25-29-34-23-15-50-25-80-32-31-7-59-11-85-11m-18 424c-37 0-66-11-89-34s-36-53-41-92h246c-3 41-14 72-33 94-20 21-48 32-83 32M153 549c-11 1-19 5-25 14-7 8-9 19-7 32 7 45 24 82 52 112 27 29 64 44 111 44s85-15 112-44c27-30 44-67 51-112 2-13 0-24-6-32-6-9-15-13-26-14-23-1-37 11-41 36-5 30-15 53-31 68-17 15-36 22-59 22s-42-7-58-22-27-38-32-68c-4-25-18-37-41-36z"/><glyph unicode="ē" horiz-adv-x="542" d="M306-10c-55 0-103 10-143 31s-71 50-92 88c-22 38-33 83-33 135 0 51 11 95 32 133s50 68 87 90c37 21 79 32 126 32 69 0 124-22 165-66 40-44 60-104 60-180 0-25-16-37-48-37H158c9-87 59-131 150-131 17 0 37 2 59 7 21 4 42 11 61 22 17 10 32 13 44 10 12-4 21-11 26-22s5-22 2-35c-4-13-14-25-29-34-23-15-50-25-80-32-31-7-59-11-85-11m-18 424c-37 0-66-11-89-34s-36-53-41-92h246c-3 41-14 72-33 94-20 21-48 32-83 32M161 616c-26 0-39 12-39 37s13 37 39 37h247c26 0 39-12 39-37s-13-37-39-37z"/><glyph unicode="ḗ" horiz-adv-x="542" d="M306-10c-55 0-103 10-143 31s-71 50-92 88c-22 38-33 83-33 135 0 51 11 95 32 133s50 68 87 90c37 21 79 32 126 32 69 0 124-22 165-66 40-44 60-104 60-180 0-25-16-37-48-37H158c9-87 59-131 150-131 17 0 37 2 59 7 21 4 42 11 61 22 17 10 32 13 44 10 12-4 21-11 26-22s5-22 2-35c-4-13-14-25-29-34-23-15-50-25-80-32-31-7-59-11-85-11m-18 424c-37 0-66-11-89-34s-36-53-41-92h246c-3 41-14 72-33 94-20 21-48 32-83 32m34 263c-9-11-20-16-32-15s-21 7-27 17c-6 9-6 20 1 33l50 91c8 14 19 22 32 25 13 2 25 0 36-6 11-7 18-16 22-27 3-11-1-24-12-37M164 567c-28 0-42 12-42 37s14 37 42 37h240c28 0 42-12 42-37s-14-37-42-37z"/><glyph unicode="ḕ" horiz-adv-x="542" d="M306-10c-55 0-103 10-143 31s-71 50-92 88c-22 38-33 83-33 135 0 51 11 95 32 133s50 68 87 90c37 21 79 32 126 32 69 0 124-22 165-66 40-44 60-104 60-180 0-25-16-37-48-37H158c9-87 59-131 150-131 17 0 37 2 59 7 21 4 42 11 61 22 17 10 32 13 44 10 12-4 21-11 26-22s5-22 2-35c-4-13-14-25-29-34-23-15-50-25-80-32-31-7-59-11-85-11m-18 424c-37 0-66-11-89-34s-36-53-41-92h246c-3 41-14 72-33 94-20 21-48 32-83 32m-42 263l-70 81c-11 13-15 26-11 37 3 11 11 20 22 27 11 6 23 8 36 6 13-3 23-11 31-25l50-91c7-13 8-24 2-33-7-10-16-16-27-17-12-1-23 4-33 15m-82-110c-28 0-42 12-42 37s14 37 42 37h240c28 0 42-12 42-37s-14-37-42-37z"/><glyph unicode="ę" horiz-adv-x="542" d="M306-10c-55 0-103 10-143 31s-71 50-92 88c-22 38-33 83-33 135 0 51 11 95 32 133s50 68 87 90c37 21 79 32 126 32 69 0 124-22 165-66 40-44 60-104 60-180 0-25-16-37-48-37H158c9-87 59-131 150-131 17 0 37 2 59 7 21 4 42 11 61 22 17 10 32 13 44 10 12-4 21-11 26-22s5-22 2-35c-4-13-14-25-29-34-23-15-50-25-80-32-31-7-59-11-85-11m-18 424c-37 0-66-11-89-34s-36-53-41-92h246c-3 41-14 72-33 94-20 21-48 32-83 32m62-609c-37 0-65 9-86 28s-32 44-32 76c0 28 9 54 28 78s43 42 74 55l37-42c-17-7-31-17-42-30-12-14-18-30-18-47s5-29 16-38 24-13 40-13c10 0 20 1 30 4 16 5 27 3 34-6s9-19 6-30c-3-12-11-21-24-26-11-4-21-6-32-7s-22-2-31-2z"/><glyph unicode="ẽ" horiz-adv-x="542" d="M306-10c-55 0-103 10-143 31s-71 50-92 88c-22 38-33 83-33 135 0 51 11 95 32 133s50 68 87 90c37 21 79 32 126 32 69 0 124-22 165-66 40-44 60-104 60-180 0-25-16-37-48-37H158c9-87 59-131 150-131 17 0 37 2 59 7 21 4 42 11 61 22 17 10 32 13 44 10 12-4 21-11 26-22s5-22 2-35c-4-13-14-25-29-34-23-15-50-25-80-32-31-7-59-11-85-11m-18 424c-37 0-66-11-89-34s-36-53-41-92h246c-3 41-14 72-33 94-20 21-48 32-83 32M121 581c-10 1-18 4-23 10s-7 15-4 28c3 19 10 37 19 55 9 17 21 32 37 44s36 18 60 18c17 0 31-3 44-10s24-14 35-23 21-16 32-23 22-10 35-10c14 0 26 5 37 15 10 9 16 21 19 36s15 23 35 22c10-1 18-4 23-10s7-15 4-28c-3-18-10-36-19-54s-22-33-37-45c-16-12-36-18-60-18-17 0-31 3-44 10s-24 14-35 23-22 16-33 23-22 10-34 10c-14 0-26-5-36-14s-17-22-20-37-15-23-35-22z"/><glyph unicode="ə" horiz-adv-x="543" d="M262-10c-72 0-128 22-167 65-40 43-60 104-60 181 0 25 16 37 48 37h302c-9 87-59 131-150 131-17 0-36-2-57-6-22-5-43-13-62-24-17-10-32-13-44-9-13 3-21 11-26 22s-6 23-2 36 13 24 28 33c23 15 50 26 81 33 30 7 58 10 84 10 55 0 103-10 143-31s71-50 93-88c21-38 32-83 32-135 0-50-10-94-31-132-21-39-49-69-85-90-37-22-79-33-127-33m-3 85c37 0 67 11 88 34s33 53 38 92H144c3-41 13-72 32-93 18-22 46-33 83-33z"/><glyph unicode="ʒ" horiz-adv-x="516" d="M233-190c-79 0-146 15-199 44-15 8-24 19-27 32-4 13-3 25 2 36s14 19 25 24 23 3 37-5c20-11 42-20 67-26 25-7 51-10 80-10 49 0 85 10 109 31 24 20 36 49 36 88 0 35-12 63-36 82s-59 28-106 28h-69c-19 0-30 8-34 24-4 15 1 30 16 45l181 188H75c-34 0-51 16-51 49s17 49 51 49h335c19 0 33-5 42-16s12-25 11-40-9-30-22-44L278 219c66-1 117-18 154-51s55-79 55-136c0-68-23-122-68-162-46-40-108-60-186-60z"/><glyph unicode="ǯ" horiz-adv-x="516" d="M233-190c-79 0-146 15-199 44-15 8-24 19-27 32-4 13-3 25 2 36s14 19 25 24 23 3 37-5c20-11 42-20 67-26 25-7 51-10 80-10 49 0 85 10 109 31 24 20 36 49 36 88 0 35-12 63-36 82s-59 28-106 28h-69c-19 0-30 8-34 24-4 15 1 30 16 45l181 188H75c-34 0-51 16-51 49s17 49 51 49h335c19 0 33-5 42-16s12-25 11-40-9-30-22-44L278 219c66-1 117-18 154-51s55-79 55-136c0-68-23-122-68-162-46-40-108-60-186-60m11 726c-30 0-53 16-70 47l-72 131c-6 11-7 20-4 29s9 15 17 20c8 4 17 5 26 4s16-7 22-16l81-126 81 126c6 9 14 15 23 16s17 0 25-4c8-5 14-11 17-20s2-18-4-29l-71-131c-17-31-40-47-71-47z"/><glyph unicode="f" horiz-adv-x="364" d="M161-8c-42 0-63 21-63 64v339H52c-33 0-50 16-50 47s17 47 50 47h46v1c0 69 17 120 52 155 35 34 85 54 150 60l34 3c17 1 30-2 38-11s12-19 13-31c0-13-3-24-10-33-7-10-16-16-29-17l-14-1c-38-3-66-12-83-29s-26-42-26-76v-21h85c33 0 50-16 50-47s-17-47-50-47h-85V56c0-43-21-64-62-64z"/><glyph unicode="g" horiz-adv-x="604" d="M293-190c-36 0-71 3-104 10-34 7-65 17-92 31-16 8-25 18-28 31-3 12-2 24 3 35s14 20 25 25 22 4 35-2c29-15 57-24 84-28 26-5 48-7 67-7 89 0 134 43 134 129v67c-14-27-35-49-64-65s-62-24-97-24c-44 0-82 10-115 31-33 20-58 48-76 85s-27 79-27 128 9 91 27 128c18 36 43 64 76 85 33 20 71 30 115 30 35 0 67-8 96-23s50-36 63-63v21c0 21 6 36 17 47s26 16 45 16c41 0 62-21 62-63V49c0-79-21-139-63-179s-103-60-183-60m-3 297c39 0 69 13 92 40s34 63 34 109-11 82-34 109c-23 26-53 39-92 39s-69-13-92-39c-23-27-34-63-34-109s11-82 34-109 53-40 92-40z"/><glyph unicode="ğ" horiz-adv-x="604" d="M293-190c-36 0-71 3-104 10-34 7-65 17-92 31-16 8-25 18-28 31-3 12-2 24 3 35s14 20 25 25 22 4 35-2c29-15 57-24 84-28 26-5 48-7 67-7 89 0 134 43 134 129v67c-14-27-35-49-64-65s-62-24-97-24c-44 0-82 10-115 31-33 20-58 48-76 85s-27 79-27 128 9 91 27 128c18 36 43 64 76 85 33 20 71 30 115 30 35 0 67-8 96-23s50-36 63-63v21c0 21 6 36 17 47s26 16 45 16c41 0 62-21 62-63V49c0-79-21-139-63-179s-103-60-183-60m-3 297c39 0 69 13 92 40s34 63 34 109-11 82-34 109c-23 26-53 39-92 39s-69-13-92-39c-23-27-34-63-34-109s11-82 34-109 53-40 92-40m13 444c-47 0-84 15-111 45-27 29-45 66-52 111-2 13 0 24 7 33 6 8 14 12 25 13 23 1 37-11 41-36 5-30 16-52 32-67s35-23 58-23 42 8 59 23c16 15 26 37 31 67 4 25 18 37 41 36 11-1 20-5 26-13 6-9 8-20 6-33-7-45-24-82-51-111-27-30-65-45-112-45z"/><glyph unicode="ǧ" horiz-adv-x="604" d="M293-190c-36 0-71 3-104 10-34 7-65 17-92 31-16 8-25 18-28 31-3 12-2 24 3 35s14 20 25 25 22 4 35-2c29-15 57-24 84-28 26-5 48-7 67-7 89 0 134 43 134 129v67c-14-27-35-49-64-65s-62-24-97-24c-44 0-82 10-115 31-33 20-58 48-76 85s-27 79-27 128 9 91 27 128c18 36 43 64 76 85 33 20 71 30 115 30 35 0 67-8 96-23s50-36 63-63v21c0 21 6 36 17 47s26 16 45 16c41 0 62-21 62-63V49c0-79-21-139-63-179s-103-60-183-60m-3 297c39 0 69 13 92 40s34 63 34 109-11 82-34 109c-23 26-53 39-92 39s-69-13-92-39c-23-27-34-63-34-109s11-82 34-109 53-40 92-40m13 429c-30 0-53 16-70 47l-72 131c-6 11-7 20-4 29s9 15 17 20c8 4 17 5 26 4s16-7 22-16l81-126 81 126c6 9 14 15 23 16s17 0 25-4c8-5 14-11 17-20s2-18-4-29l-71-131c-17-31-40-47-71-47z"/><glyph unicode="ĝ" horiz-adv-x="604" d="M293-190c-36 0-71 3-104 10-34 7-65 17-92 31-16 8-25 18-28 31-3 12-2 24 3 35s14 20 25 25 22 4 35-2c29-15 57-24 84-28 26-5 48-7 67-7 89 0 134 43 134 129v67c-14-27-35-49-64-65s-62-24-97-24c-44 0-82 10-115 31-33 20-58 48-76 85s-27 79-27 128 9 91 27 128c18 36 43 64 76 85 33 20 71 30 115 30 35 0 67-8 96-23s50-36 63-63v21c0 21 6 36 17 47s26 16 45 16c41 0 62-21 62-63V49c0-79-21-139-63-179s-103-60-183-60m-3 297c39 0 69 13 92 40s34 63 34 109-11 82-34 109c-23 26-53 39-92 39s-69-13-92-39c-23-27-34-63-34-109s11-82 34-109 53-40 92-40m155 490c6-11 7-20 4-29s-9-15-17-19c-8-5-16-6-25-5s-17 7-23 16l-81 126-81-126c-6-9-13-15-22-16s-18 0-26 5c-8 4-14 10-17 19s-2 18 4 29l72 132c16 30 39 45 70 45s55-15 71-45z"/><glyph unicode="ģ" horiz-adv-x="604" d="M293-190c-36 0-71 3-104 10-34 7-65 17-92 31-16 8-25 18-28 31-3 12-2 24 3 35s14 20 25 25 22 4 35-2c29-15 57-24 84-28 26-5 48-7 67-7 89 0 134 43 134 129v67c-14-27-35-49-64-65s-62-24-97-24c-44 0-82 10-115 31-33 20-58 48-76 85s-27 79-27 128 9 91 27 128c18 36 43 64 76 85 33 20 71 30 115 30 35 0 67-8 96-23s50-36 63-63v21c0 21 6 36 17 47s26 16 45 16c41 0 62-21 62-63V49c0-79-21-139-63-179s-103-60-183-60m-3 297c39 0 69 13 92 40s34 63 34 109-11 82-34 109c-23 26-53 39-92 39s-69-13-92-39c-23-27-34-63-34-109s11-82 34-109 53-40 92-40m14 451c-45 0-68 23-68 69 0 21 3 43 10 66 7 22 17 41 31 58 9 11 19 16 30 15s19-7 24-16 2-21-7-34c-8-12-14-26-17-41 43-2 64-22 64-59 0-39-22-58-67-58z"/><glyph unicode="ġ" horiz-adv-x="604" d="M293-190c-36 0-71 3-104 10-34 7-65 17-92 31-16 8-25 18-28 31-3 12-2 24 3 35s14 20 25 25 22 4 35-2c29-15 57-24 84-28 26-5 48-7 67-7 89 0 134 43 134 129v67c-14-27-35-49-64-65s-62-24-97-24c-44 0-82 10-115 31-33 20-58 48-76 85s-27 79-27 128 9 91 27 128c18 36 43 64 76 85 33 20 71 30 115 30 35 0 67-8 96-23s50-36 63-63v21c0 21 6 36 17 47s26 16 45 16c41 0 62-21 62-63V49c0-79-21-139-63-179s-103-60-183-60m-3 297c39 0 69 13 92 40s34 63 34 109-11 82-34 109c-23 26-53 39-92 39s-69-13-92-39c-23-27-34-63-34-109s11-82 34-109 53-40 92-40m13 486c-43 0-65 21-65 63 0 41 22 62 65 62 44 0 66-21 66-62 0-42-22-63-66-63z"/><glyph unicode="ḡ" horiz-adv-x="604" d="M293-190c-36 0-71 3-104 10-34 7-65 17-92 31-16 8-25 18-28 31-3 12-2 24 3 35s14 20 25 25 22 4 35-2c29-15 57-24 84-28 26-5 48-7 67-7 89 0 134 43 134 129v67c-14-27-35-49-64-65s-62-24-97-24c-44 0-82 10-115 31-33 20-58 48-76 85s-27 79-27 128 9 91 27 128c18 36 43 64 76 85 33 20 71 30 115 30 35 0 67-8 96-23s50-36 63-63v21c0 21 6 36 17 47s26 16 45 16c41 0 62-21 62-63V49c0-79-21-139-63-179s-103-60-183-60m-3 297c39 0 69 13 92 40s34 63 34 109-11 82-34 109c-23 26-53 39-92 39s-69-13-92-39c-23-27-34-63-34-109s11-82 34-109 53-40 92-40M180 616c-26 0-39 12-39 37s13 37 39 37h247c26 0 39-12 39-37s-13-37-39-37z"/><glyph unicode="ǥ" horiz-adv-x="604" d="M293-190c-36 0-70 3-103 10-33 6-64 16-93 31-16 8-25 18-28 31s-2 25 4 36c5 11 14 20 25 25s22 4 34-3c23-13 50-22 79-27s53-8 72-8c48 0 83 13 106 38h-64c-11 0-21 4-28 12-8 7-12 16-12 27s4 21 12 28c7 7 17 11 28 11h92v112c-13-27-34-49-63-65-29-17-61-25-97-25-43 0-81 10-114 30-33 19-59 46-77 81-19 35-28 74-28 117 0 44 9 83 28 118 18 34 44 61 77 81 33 19 71 29 114 29 35 0 67-8 96-23 28-15 49-36 62-63v23c0 19 6 34 17 45s26 16 45 16c41 0 62-20 62-61V49c0-9 0-19-1-28h26c11 0 21-4 29-11 7-7 11-17 11-28s-4-20-11-27c-8-8-18-12-29-12h-41c-33-89-110-133-230-133m-3 328c37 0 68 12 91 37s34 57 34 96-11 71-34 96-54 37-91 37-68-12-91-36c-23-25-35-57-35-97s12-72 36-96c23-25 53-37 90-37z"/><glyph unicode="h" horiz-adv-x="585" d="M127-8C86-8 65 13 65 56v594c0 42 21 63 62 63 42 0 63-21 63-63V418c17 27 39 47 67 61 28 13 59 20 93 20 115 0 173-67 173-201V56c0-43-21-64-62-64-42 0-63 21-63 64v236c0 38-7 66-21 83-15 17-37 26-67 26-37 0-66-11-87-34-22-23-33-54-33-92V56c0-43-21-64-63-64z"/><glyph unicode="ħ" horiz-adv-x="585" d="M127-8C86-8 65 13 65 56v488H21c-31 0-47 15-47 44s16 44 47 44h44v23c0 18 5 32 16 43 11 10 26 15 46 15s36-5 47-15c11-11 16-25 16-43v-23h145c31 0 46-15 46-44s-15-44-46-44H190V418c17 27 39 47 67 61 28 13 59 20 93 20 115 0 173-67 173-201V56c0-43-21-64-62-64-42 0-63 21-63 64v236c0 38-7 66-21 83-15 17-37 26-67 26-37 0-66-11-87-34-22-23-33-54-33-92V56c0-43-21-64-63-64z"/><glyph unicode="ḫ" horiz-adv-x="585" d="M127-8C86-8 65 13 65 56v594c0 42 21 63 62 63 42 0 63-21 63-63V418c17 27 39 47 67 61 28 13 59 20 93 20 115 0 173-67 173-201V56c0-43-21-64-62-64-42 0-63 21-63 64v236c0 38-7 66-21 83-15 17-37 26-67 26-37 0-66-11-87-34-22-23-33-54-33-92V56c0-43-21-64-63-64m167-207c-41 0-76 10-104 31-29 20-48 49-57 86-3 14-2 25 4 34 5 8 13 12 24 13s20 0 27-4c7-5 13-13 16-25 5-19 16-33 32-44s35-17 58-17 43 6 59 17c15 11 26 25 31 44 3 12 9 20 16 25 7 4 16 5 27 4s20-5 25-13c5-9 6-20 3-34-9-37-28-66-56-86-29-21-64-31-105-31z"/><glyph unicode="ȟ" horiz-adv-x="585" d="M127-8C86-8 65 13 65 56v594c0 42 21 63 62 63 42 0 63-21 63-63V418c17 27 39 47 67 61 28 13 59 20 93 20 115 0 173-67 173-201V56c0-43-21-64-62-64-42 0-63 21-63 64v236c0 38-7 66-21 83-15 17-37 26-67 26-37 0-66-11-87-34-22-23-33-54-33-92V56c0-43-21-64-63-64m167 762c-31 0-55 13-73 39l-73 102c-7 9-9 18-6 27 2 9 7 16 15 21s17 7 27 6c9-1 18-7 26-16l84-98 85 98c11 13 23 18 36 16s22-8 29-18c7-11 5-23-4-36l-72-102c-18-26-43-39-74-39z"/><glyph unicode="ĥ" horiz-adv-x="585" d="M127-8C86-8 65 13 65 56v594c0 42 21 63 62 63 42 0 63-21 63-63V418c17 27 39 47 67 61 28 13 59 20 93 20 115 0 173-67 173-201V56c0-43-21-64-62-64-42 0-63 21-63 64v236c0 38-7 66-21 83-15 17-37 26-67 26-37 0-66-11-87-34-22-23-33-54-33-92V56c0-43-21-64-63-64m83 779c-11-11-23-16-36-14s-23 8-29 19c-7 10-6 21 3 34l73 101c18 27 42 40 73 40 30 0 55-13 74-40l72-101c9-13 11-24 5-34-7-11-16-17-29-19s-26 3-37 14l-85 98z"/><glyph unicode="ḥ" horiz-adv-x="585" d="M127-8C86-8 65 13 65 56v594c0 42 21 63 62 63 42 0 63-21 63-63V418c17 27 39 47 67 61 28 13 59 20 93 20 115 0 173-67 173-201V56c0-43-21-64-62-64-42 0-63 21-63 64v236c0 38-7 66-21 83-15 17-37 26-67 26-37 0-66-11-87-34-22-23-33-54-33-92V56c0-43-21-64-63-64m167-201c-43 0-65 21-65 63 0 41 22 62 65 62 44 0 66-21 66-62 0-42-22-63-66-63z"/><glyph unicode="i" horiz-adv-x="255" d="M127 589c-23 0-41 6-54 18-13 11-20 27-20 48s7 38 20 49 31 17 54 17c49 0 74-22 74-66s-25-66-74-66m0-596c-20 0-35 6-46 18S65 40 65 61v367c0 45 21 68 62 68 42 0 63-23 63-68V61c0-21-5-38-16-50S148-7 127-7z"/><glyph unicode="ı" horiz-adv-x="255" d="M127-7c-20 0-35 6-46 18S65 40 65 61v367c0 45 21 68 62 68 42 0 63-23 63-68V61c0-21-5-38-16-50S148-7 127-7z"/><glyph unicode="í" horiz-adv-x="255" d="M127-7c-20 0-35 6-46 18S65 40 65 61v367c0 45 21 68 62 68 42 0 63-23 63-68V61c0-21-5-38-16-50S148-7 127-7m47 567c-7-9-15-15-24-16s-18 0-27 5-15 11-18 20c-4 9-3 18 2 29l76 149c7 15 18 24 31 27 13 2 26 0 39-7 12-7 20-16 25-28 5-13 2-26-7-39z"/><glyph unicode="ĭ" horiz-adv-x="255" d="M127-7c-20 0-35 6-46 18S65 40 65 61v367c0 45 21 68 62 68 42 0 63-23 63-68V61c0-21-5-38-16-50S148-7 127-7m0 558c-47 0-84 15-111 45-27 29-45 66-52 111-2 13 0 24 7 33 6 8 14 12 25 13 23 1 37-11 41-36 5-30 16-52 32-67s35-23 58-23 42 8 59 23c16 15 26 37 31 67 4 25 18 37 41 36 11-1 20-5 26-13 6-9 8-20 6-33-7-45-24-82-51-111-27-30-65-45-112-45z"/><glyph unicode="î" horiz-adv-x="255" d="M127-7c-20 0-35 6-46 18S65 40 65 61v367c0 45 21 68 62 68 42 0 63-23 63-68V61c0-21-5-38-16-50S148-7 127-7m142 604c6-11 7-20 4-29s-9-15-17-19c-8-5-16-6-25-5s-17 7-23 16l-81 126-81-126c-6-9-13-15-22-16s-18 0-26 5c-8 4-14 10-17 19s-2 18 4 29l72 132c16 30 39 45 70 45s55-15 71-45z"/><glyph unicode="ȉ" horiz-adv-x="255" d="M127-7c-20 0-35 6-46 18S65 40 65 61v367c0 45 21 68 62 68 42 0 63-23 63-68V61c0-21-5-38-16-50S148-7 127-7M18 564l-65 148c-7 16-7 29 0 40 6 10 16 17 29 20s25 2 37-3 20-16 24-33l38-153c3-13 1-24-8-31s-19-10-30-8c-11 1-20 8-25 20m148 0l-65 148c-7 16-7 29 0 40 7 10 16 17 29 20s25 2 38-3c12-5 20-16 24-33l37-153c3-13 1-24-8-31s-19-10-30-8c-11 1-20 8-25 20z"/><glyph unicode="ï" horiz-adv-x="255" d="M127-7c-20 0-35 6-46 18S65 40 65 61v367c0 45 21 68 62 68 42 0 63-23 63-68V61c0-21-5-38-16-50S148-7 127-7m95 600c-41 0-62 21-62 62s21 61 62 61 61-20 61-61-20-62-61-62m-189 0c-19 0-34 5-45 16s-17 26-17 46c0 19 6 34 17 45s26 16 45 16c41 0 62-20 62-61s-21-62-62-62z"/><glyph unicode="ḯ" horiz-adv-x="255" d="M127-7c-20 0-35 6-46 18S65 40 65 61v367c0 45 21 68 62 68 42 0 63-23 63-68V61c0-21-5-38-16-50S148-7 127-7m39 684c-9-11-20-15-32-14s-21 7-27 17c-6 9-6 20 1 33l49 90c8 14 18 22 31 24s25 0 36-6c11-7 19-16 22-28s-2-25-13-38M33 550c-19 0-34 4-45 13-11 8-17 20-17 35s6 27 17 36c11 8 26 12 45 12 41 0 62-16 62-48s-21-48-62-48m189 0c-41 0-62 16-62 48s21 48 62 48 61-16 61-48-20-48-61-48z"/><glyph unicode="ị" horiz-adv-x="255" d="M127 589c-23 0-41 6-54 18-13 11-20 27-20 48s7 38 20 49 31 17 54 17c49 0 74-22 74-66s-25-66-74-66m0-596c-20 0-35 6-46 18S65 40 65 61v367c0 45 21 68 62 68 42 0 63-23 63-68V61c0-21-5-38-16-50S148-7 127-7m0-202c-43 0-65 21-65 63 0 41 22 62 65 62 44 0 66-21 66-62 0-42-22-63-66-63z"/><glyph unicode="ì" horiz-adv-x="255" d="M127-7c-20 0-35 6-46 18S65 40 65 61v367c0 45 21 68 62 68 42 0 63-23 63-68V61c0-21-5-38-16-50S148-7 127-7M81 560l-97 140c-9 14-12 27-7 39s13 21 25 28 25 9 38 7c13-3 24-12 32-27l75-149c5-11 6-20 3-29s-9-15-18-20-18-6-27-5-17 7-24 16z"/><glyph unicode="ỉ" horiz-adv-x="255" d="M127-7c-20 0-35 6-46 18S65 40 65 61v367c0 45 21 68 62 68 42 0 63-23 63-68V61c0-21-5-38-16-50S148-7 127-7m0 553c-25 0-38 9-38 27 0 15 3 27 9 37 5 9 12 18 19 25s14 13 20 20c5 6 8 13 8 22 0 17-13 25-40 25-5 0-11 0-17-1s-12-2-19-4c-11-3-20-4-26-2-7 1-12 6-15 15-7 19 0 33 21 42 12 5 25 8 40 10 14 2 29 3 44 3 33 0 60-6 79-18 19-13 28-31 28-54 0-17-4-30-11-40-8-11-17-20-26-27-10-7-19-15-26-23-8-9-12-19-12-32 0-17-13-25-38-25z"/><glyph unicode="ȋ" horiz-adv-x="255" d="M127-7c-20 0-35 6-46 18S65 40 65 61v367c0 45 21 68 62 68 42 0 63-23 63-68V61c0-21-5-38-16-50S148-7 127-7M-4 549c-11 1-19 5-25 14-7 8-9 19-7 32 7 45 24 82 52 112 27 29 64 44 111 44s85-15 112-44c27-30 44-67 51-112 2-13 0-24-6-32-6-9-15-13-26-14-23-1-37 11-41 36-5 30-15 53-31 68-17 15-36 22-59 22s-42-7-58-22-27-38-32-68c-4-25-18-37-41-36z"/><glyph unicode="ī" horiz-adv-x="255" d="M127-7c-20 0-35 6-46 18S65 40 65 61v367c0 45 21 68 62 68 42 0 63-23 63-68V61c0-21-5-38-16-50S148-7 127-7M4 616c-26 0-39 12-39 37s13 37 39 37h247c26 0 39-12 39-37s-13-37-39-37z"/><glyph unicode="į" horiz-adv-x="255" d="M127 589c-23 0-41 6-54 18-13 11-20 27-20 48s7 38 20 49 31 17 54 17c49 0 74-22 74-66s-25-66-74-66m16-784c-37 0-65 9-86 28s-32 44-32 76c0 20 5 39 15 57 9 18 22 34 39 47-9 12-14 28-14 48v367c0 45 21 68 62 68 42 0 63-23 63-68V61c0-31-11-52-34-65-13-8-25-18-36-30-11-13-16-27-16-43 0-17 5-29 16-38s24-13 40-13c10 0 20 1 30 4 16 5 27 3 34-6s9-19 6-30c-3-12-11-21-24-26-11-4-21-6-32-7s-22-2-31-2z"/><glyph unicode="ĩ" horiz-adv-x="255" d="M127-7c-20 0-35 6-46 18S65 40 65 61v367c0 45 21 68 62 68 42 0 63-23 63-68V61c0-21-5-38-16-50S148-7 127-7M-36 581c-10 1-18 4-23 10s-7 15-4 28c3 19 10 37 19 55 9 17 21 32 37 44s36 18 60 18c17 0 31-3 44-10s24-14 35-23 21-16 32-23 22-10 35-10c14 0 26 5 37 15 10 9 16 21 19 36s15 23 35 22c10-1 18-4 23-10s7-15 4-28c-3-18-10-36-19-54s-22-33-37-45c-16-12-36-18-60-18-17 0-31 3-44 10s-24 14-35 23-22 16-33 23-22 10-34 10c-14 0-26-5-36-14S2 618-1 603s-15-23-35-22z"/><glyph unicode="j" horiz-adv-x="259" d="M131 589c-23 0-41 6-54 18-13 11-20 27-20 48s7 38 20 49 31 17 54 17c49 0 74-22 74-66s-25-66-74-66M5-189c-19-1-33 2-42 11-10 8-16 18-17 30s1 23 8 33c6 10 16 16 29 17 30 3 52 11 66 26C62-58 69-36 69-7v441c0 42 21 63 63 63 41 0 62-21 62-63V4c0-65-15-112-46-141S70-184 5-189z"/><glyph unicode="ȷ" horiz-adv-x="259" d="M5-189c-19-1-33 2-42 11-10 8-16 18-17 30s1 23 8 33c6 10 16 16 29 17 30 3 52 11 66 26C62-58 69-36 69-7v441c0 42 21 63 63 63 41 0 62-21 62-63V4c0-65-15-112-46-141S70-184 5-189z"/><glyph unicode="ĵ" horiz-adv-x="259" d="M5-189c-19-1-33 2-42 11-10 8-16 18-17 30s1 23 8 33c6 10 16 16 29 17 30 3 52 11 66 26C62-58 69-36 69-7v441c0 42 21 63 63 63 41 0 62-21 62-63V4c0-65-15-112-46-141S70-184 5-189m268 786c6-11 7-20 4-29s-9-15-17-19c-8-5-16-6-25-5s-17 7-23 16l-81 126-81-126c-6-9-13-15-22-16s-18 0-26 5c-8 4-14 10-17 19s-2 18 4 29l72 132c16 30 39 45 70 45s55-15 71-45z"/><glyph unicode="k" horiz-adv-x="536" d="M127-8C86-8 65 13 65 56v594c0 42 21 63 62 63 42 0 63-21 63-63V281h2l165 174c13 13 25 24 35 31s24 11 41 11 31-4 40-13 13-20 13-33-6-25-18-38L318 255 485 75c12-13 18-25 17-38s-7-24-17-32c-10-9-23-13-38-13-19 0-33 4-44 11s-24 18-37 33L192 218h-2V56c0-43-21-64-63-64z"/><glyph unicode="ǩ" horiz-adv-x="536" d="M127-8C86-8 65 13 65 56v594c0 42 21 63 62 63 42 0 63-21 63-63V281h2l165 174c13 13 25 24 35 31s24 11 41 11 31-4 40-13 13-20 13-33-6-25-18-38L318 255 485 75c12-13 18-25 17-38s-7-24-17-32c-10-9-23-13-38-13-19 0-33 4-44 11s-24 18-37 33L192 218h-2V56c0-43-21-64-63-64m167 762c-31 0-55 13-73 39l-73 102c-7 9-9 18-6 27 2 9 7 16 15 21s17 7 27 6c9-1 18-7 26-16l84-98 85 98c11 13 23 18 36 16s22-8 29-18c7-11 5-23-4-36l-72-102c-18-26-43-39-74-39z"/><glyph unicode="ķ" horiz-adv-x="536" d="M127-8C86-8 65 13 65 56v594c0 42 21 63 62 63 42 0 63-21 63-63V281h2l165 174c13 13 25 24 35 31s24 11 41 11 31-4 40-13 13-20 13-33-6-25-18-38L318 255 485 75c12-13 18-25 17-38s-7-24-17-32c-10-9-23-13-38-13-19 0-33 4-44 11s-24 18-37 33L192 218h-2V56c0-43-21-64-63-64m167-252c-9-11-18-15-29-14s-19 7-24 16-3 20 6 33c8 12 14 26 17 41-43 2-64 22-64 59 0 39 22 58 67 58s68-23 68-69c0-21-3-42-10-64-7-23-17-43-31-60z"/><glyph unicode="ĸ" horiz-adv-x="536" d="M127-8C86-8 65 13 65 56v378c0 42 21 63 62 63 42 0 63-21 63-63V281h2l165 174c13 13 25 24 35 31s24 11 41 11 31-4 40-13 13-20 13-33-6-25-18-38L318 255 485 75c12-13 18-25 17-38s-7-24-17-32c-10-9-23-13-38-13-19 0-33 4-44 11s-24 18-37 33L192 218h-2V56c0-43-21-64-63-64z"/><glyph unicode="l" horiz-adv-x="319" d="M232-10C121-10 65 52 65 177v473c0 42 21 63 62 63 42 0 63-21 63-63V183c0-60 25-90 75-90 5 0 10 0 15 1 5 0 9 0 14 1 9 1 16-1 19-7 3-7 5-20 5-39 0-17-3-30-10-39S290-5 275-7c-14-2-28-3-43-3z"/><glyph unicode="ĺ" horiz-adv-x="319" d="M232-10C121-10 65 52 65 177v473c0 42 21 63 62 63 42 0 63-21 63-63V183c0-60 25-90 75-90 5 0 10 0 15 1 5 0 9 0 14 1 9 1 16-1 19-7 3-7 5-20 5-39 0-17-3-30-10-39S290-5 275-7c-14-2-28-3-43-3m-54 781c-8-9-17-13-26-13-10-1-19 2-26 8-8 5-13 12-15 21-3 9-1 18 5 27l78 115c9 14 21 21 34 22s26-3 37-10c11-8 18-18 21-29 3-12-1-24-12-36z"/><glyph unicode="ľ" horiz-adv-x="319" d="M232-10C121-10 65 52 65 177v473c0 42 21 63 62 63 42 0 63-21 63-63V183c0-60 25-90 75-90 5 0 10 0 15 1 5 0 9 0 14 1 9 1 16-1 19-7 3-7 5-20 5-39 0-17-3-30-10-39S290-5 275-7c-14-2-28-3-43-3m27 516c-19 0-29 10-29 31v134c0 28 14 42 42 42 29 0 41-15 37-44l-18-134c-3-19-14-29-32-29z"/><glyph unicode="ļ" horiz-adv-x="319" d="M232-10C121-10 65 52 65 177v473c0 42 21 63 62 63 42 0 63-21 63-63V183c0-60 25-90 75-90 5 0 10 0 15 1 5 0 9 0 14 1 9 1 16-1 19-7 3-7 5-20 5-39 0-17-3-30-10-39S290-5 275-7c-14-2-28-3-43-3m-14-250c-9-11-18-15-29-14s-19 7-24 16-3 20 6 33c8 12 14 26 17 41-43 2-64 22-64 59 0 39 22 58 67 58s68-23 68-69c0-21-3-42-10-64-7-23-17-43-31-60z"/><glyph unicode="ŀ" horiz-adv-x="386" d="M232-10C121-10 65 52 65 177v473c0 42 21 63 62 63 42 0 63-21 63-63V183c0-60 25-90 75-90 5 0 10 0 15 1 5 0 9 0 14 1 9 1 16-1 19-7 3-7 5-20 5-39 0-17-3-30-10-39S290-5 275-7c-14-2-28-3-43-3m90 288c-23 0-41 7-54 21-14 14-21 32-21 53 0 22 7 40 21 54 13 13 31 20 54 20s42-7 55-20c13-14 19-32 19-54 0-21-6-39-19-53s-32-21-55-21z"/><glyph unicode="ḷ" horiz-adv-x="319" d="M232-10C121-10 65 52 65 177v473c0 42 21 63 62 63 42 0 63-21 63-63V183c0-60 25-90 75-90 5 0 10 0 15 1 5 0 9 0 14 1 9 1 16-1 19-7 3-7 5-20 5-39 0-17-3-30-10-39S290-5 275-7c-14-2-28-3-43-3m-40-199c-43 0-65 21-65 63 0 41 22 62 65 62 44 0 66-21 66-62 0-42-22-63-66-63z"/><glyph unicode="ǉ" horiz-adv-x="578" d="M232-10C121-10 65 52 65 177v473c0 42 21 63 62 63 42 0 63-21 63-63V183c0-60 25-90 75-90 5 0 10 0 15 1 5 0 9 0 14 1 9 1 16-1 19-7 3-7 5-20 5-39 0-17-3-30-10-39S290-5 275-7c-14-2-28-3-43-3m218 599c-23 0-41 6-54 18-13 11-20 27-20 48s7 38 20 49 31 17 54 17c49 0 74-22 74-66s-25-66-74-66M324-189c-19-1-33 2-42 11-10 8-16 18-17 30s1 23 8 33c6 10 16 16 29 17 30 3 52 11 66 26 13 14 20 36 20 65v441c0 42 21 63 63 63 41 0 62-21 62-63V4c0-65-15-112-46-141s-78-47-143-52z"/><glyph unicode="ḻ" horiz-adv-x="319" d="M232-10C121-10 65 52 65 177v473c0 42 21 63 62 63 42 0 63-21 63-63V183c0-60 25-90 75-90 5 0 10 0 15 1 5 0 9 0 14 1 9 1 16-1 19-7 3-7 5-20 5-39 0-17-3-30-10-39S290-5 275-7c-14-2-28-3-43-3M69-165c-26 0-39 12-39 37s13 37 39 37h247c26 0 39-12 39-37s-13-37-39-37z"/><glyph unicode="ł" horiz-adv-x="319" d="M232-10C121-10 65 52 65 177v473c0 42 21 63 62 63 42 0 63-21 63-63V183c0-60 25-90 75-90 5 0 10 0 15 1 5 0 9 0 14 1 9 1 16-1 19-7 3-7 5-20 5-39 0-17-3-30-10-39S290-5 275-7c-14-2-28-3-43-3M47 248c-16-9-30-11-43-7-13 3-22 11-28 22-7 11-8 24-5 37s12 23 27 32l231 134c16 9 30 12 43 8s22-12 29-23c6-11 8-23 5-36s-13-24-28-33z"/><glyph unicode="m" horiz-adv-x="877" d="M129-8C88-8 67 13 67 56v378c0 42 20 63 61 63s61-21 61-63v-20c15 27 35 48 61 63s56 22 90 22c73 0 121-32 144-96 15 30 37 54 66 71s61 25 98 25c110 0 165-67 165-201V56c0-43-21-64-63-64-41 0-62 21-62 64v237c0 37-6 65-18 82-13 17-34 26-63 26-33 0-58-11-77-34s-28-55-28-96V56c0-43-21-64-62-64-42 0-63 21-63 64v237c0 37-6 65-18 82-13 17-33 26-62 26-33 0-58-11-77-34s-28-55-28-96V56c0-43-21-64-63-64z"/><glyph unicode="ṃ" horiz-adv-x="877" d="M129-8C88-8 67 13 67 56v378c0 42 20 63 61 63s61-21 61-63v-20c15 27 35 48 61 63s56 22 90 22c73 0 121-32 144-96 15 30 37 54 66 71s61 25 98 25c110 0 165-67 165-201V56c0-43-21-64-63-64-41 0-62 21-62 64v237c0 37-6 65-18 82-13 17-34 26-63 26-33 0-58-11-77-34s-28-55-28-96V56c0-43-21-64-62-64-42 0-63 21-63 64v237c0 37-6 65-18 82-13 17-33 26-62 26-33 0-58-11-77-34s-28-55-28-96V56c0-43-21-64-63-64m311-201c-43 0-65 21-65 63 0 41 22 62 65 62 44 0 66-21 66-62 0-42-22-63-66-63z"/><glyph unicode="n" horiz-adv-x="585" d="M127-8C86-8 65 13 65 56v378c0 42 20 63 61 63s61-21 61-63v-21c17 28 39 49 68 64 28 15 60 22 95 22 115 0 173-67 173-201V56c0-43-21-64-62-64-42 0-63 21-63 64v236c0 38-7 66-21 83-15 17-37 26-67 26-37 0-66-11-87-34-22-23-33-54-33-92V56c0-43-21-64-63-64z"/><glyph unicode="ń" horiz-adv-x="585" d="M127-8C86-8 65 13 65 56v378c0 42 20 63 61 63s61-21 61-63v-21c17 28 39 49 68 64 28 15 60 22 95 22 115 0 173-67 173-201V56c0-43-21-64-62-64-42 0-63 21-63 64v236c0 38-7 66-21 83-15 17-37 26-67 26-37 0-66-11-87-34-22-23-33-54-33-92V56c0-43-21-64-63-64m214 568c-7-9-15-15-24-16s-18 0-27 5-15 11-18 20c-4 9-3 18 2 29l76 149c7 15 18 24 31 27 13 2 26 0 39-7 12-7 20-16 25-28 5-13 2-26-7-39z"/><glyph unicode="ŉ" horiz-adv-x="585" d="M65 583c-9-11-18-15-29-14s-19 6-24 15-3 20 6 33c8 13 14 26 17 41-43 2-64 22-64 59 0 19 6 33 18 44 11 10 28 15 49 15 45 0 68-23 68-69 0-21-3-42-10-65s-17-42-31-59M127-8C86-8 65 13 65 56v378c0 42 20 63 61 63s61-21 61-63v-21c17 28 39 49 68 64 28 15 60 22 95 22 115 0 173-67 173-201V56c0-43-21-64-62-64-42 0-63 21-63 64v236c0 38-7 66-21 83-15 17-37 26-67 26-37 0-66-11-87-34-22-23-33-54-33-92V56c0-43-21-64-63-64z"/><glyph unicode="ň" horiz-adv-x="585" d="M127-8C86-8 65 13 65 56v378c0 42 20 63 61 63s61-21 61-63v-21c17 28 39 49 68 64 28 15 60 22 95 22 115 0 173-67 173-201V56c0-43-21-64-62-64-42 0-63 21-63 64v236c0 38-7 66-21 83-15 17-37 26-67 26-37 0-66-11-87-34-22-23-33-54-33-92V56c0-43-21-64-63-64m167 544c-30 0-53 16-70 47l-72 131c-6 11-7 20-4 29s9 15 17 20c8 4 17 5 26 4s16-7 22-16l81-126 81 126c6 9 14 15 23 16s17 0 25-4c8-5 14-11 17-20s2-18-4-29l-71-131c-17-31-40-47-71-47z"/><glyph unicode="ņ" horiz-adv-x="585" d="M127-8C86-8 65 13 65 56v378c0 42 20 63 61 63s61-21 61-63v-21c17 28 39 49 68 64 28 15 60 22 95 22 115 0 173-67 173-201V56c0-43-21-64-62-64-42 0-63 21-63 64v236c0 38-7 66-21 83-15 17-37 26-67 26-37 0-66-11-87-34-22-23-33-54-33-92V56c0-43-21-64-63-64m193-252c-9-11-18-15-29-14s-19 7-24 16-3 20 6 33c8 12 14 26 17 41-43 2-64 22-64 59 0 39 22 58 67 58s68-23 68-69c0-21-3-42-10-64-7-23-17-43-31-60z"/><glyph unicode="ṅ" horiz-adv-x="585" d="M127-8C86-8 65 13 65 56v378c0 42 20 63 61 63s61-21 61-63v-21c17 28 39 49 68 64 28 15 60 22 95 22 115 0 173-67 173-201V56c0-43-21-64-62-64-42 0-63 21-63 64v236c0 38-7 66-21 83-15 17-37 26-67 26-37 0-66-11-87-34-22-23-33-54-33-92V56c0-43-21-64-63-64m167 601c-43 0-65 21-65 63 0 41 22 62 65 62 44 0 66-21 66-62 0-42-22-63-66-63z"/><glyph unicode="ṇ" horiz-adv-x="585" d="M127-8C86-8 65 13 65 56v378c0 42 20 63 61 63s61-21 61-63v-21c17 28 39 49 68 64 28 15 60 22 95 22 115 0 173-67 173-201V56c0-43-21-64-62-64-42 0-63 21-63 64v236c0 38-7 66-21 83-15 17-37 26-67 26-37 0-66-11-87-34-22-23-33-54-33-92V56c0-43-21-64-63-64m167-201c-43 0-65 21-65 63 0 41 22 62 65 62 44 0 66-21 66-62 0-42-22-63-66-63z"/><glyph unicode="ŋ" horiz-adv-x="585" d="M326-191c-19-1-33 2-42 11-9 8-14 18-15 30s1 23 8 33 17 16 30 18c32 5 55 14 70 27 14 13 21 34 21 65v299c0 38-7 66-21 83-15 17-37 26-67 26-37 0-66-11-87-34-22-23-33-54-33-92V56c0-43-21-64-63-64-41 0-62 21-62 64v378c0 42 20 63 61 63s61-21 61-63v-21c17 28 39 49 68 64 28 15 60 22 95 22 115 0 173-67 173-201V4c0-64-15-111-46-141-31-31-82-49-151-54z"/><glyph unicode="ǌ" horiz-adv-x="844" d="M127-8C86-8 65 13 65 56v378c0 42 20 63 61 63s61-21 61-63v-21c17 28 39 49 68 64 28 15 60 22 95 22 115 0 173-67 173-201V56c0-43-21-64-62-64-42 0-63 21-63 64v236c0 38-7 66-21 83-15 17-37 26-67 26-37 0-66-11-87-34-22-23-33-54-33-92V56c0-43-21-64-63-64m589 597c-23 0-41 6-54 18-13 11-20 27-20 48s7 38 20 49 31 17 54 17c49 0 74-22 74-66s-25-66-74-66M590-189c-19-1-33 2-42 11-10 8-16 18-17 30s1 23 8 33c6 10 16 16 29 17 30 3 52 11 66 26 13 14 20 36 20 65v441c0 42 21 63 63 63 41 0 62-21 62-63V4c0-65-15-112-46-141s-78-47-143-52z"/><glyph unicode="ṉ" horiz-adv-x="585" d="M127-8C86-8 65 13 65 56v378c0 42 20 63 61 63s61-21 61-63v-21c17 28 39 49 68 64 28 15 60 22 95 22 115 0 173-67 173-201V56c0-43-21-64-62-64-42 0-63 21-63 64v236c0 38-7 66-21 83-15 17-37 26-67 26-37 0-66-11-87-34-22-23-33-54-33-92V56c0-43-21-64-63-64m44-157c-26 0-39 12-39 37s13 37 39 37h247c26 0 39-12 39-37s-13-37-39-37z"/><glyph unicode="ñ" horiz-adv-x="585" d="M127-8C86-8 65 13 65 56v378c0 42 20 63 61 63s61-21 61-63v-21c17 28 39 49 68 64 28 15 60 22 95 22 115 0 173-67 173-201V56c0-43-21-64-62-64-42 0-63 21-63 64v236c0 38-7 66-21 83-15 17-37 26-67 26-37 0-66-11-87-34-22-23-33-54-33-92V56c0-43-21-64-63-64m4 589c-10 1-18 4-23 10s-7 15-4 28c3 19 10 37 19 55 9 17 21 32 37 44s36 18 60 18c17 0 31-3 44-10s24-14 35-23 21-16 32-23 22-10 35-10c14 0 26 5 37 15 10 9 16 21 19 36s15 23 35 22c10-1 18-4 23-10s7-15 4-28c-3-18-10-36-19-54s-22-33-37-45c-16-12-36-18-60-18-17 0-31 3-44 10s-24 14-35 23-22 16-33 23-22 10-34 10c-14 0-26-5-36-14s-17-22-20-37-15-23-35-22z"/><glyph unicode="o" horiz-adv-x="576" d="M288-10c-51 0-95 10-132 31s-66 50-87 89c-21 38-31 83-31 135s10 97 31 135 50 67 87 88 81 31 132 31 95-10 132-31 66-50 87-88 31-83 31-135-10-97-31-135c-21-39-50-68-87-89s-81-31-132-31m0 95c37 0 67 14 90 41s34 66 34 119-11 93-34 120c-23 26-53 39-90 39s-67-13-90-39c-23-27-34-67-34-120s11-92 34-119 53-41 90-41z"/><glyph unicode="ó" horiz-adv-x="576" d="M288-10c-51 0-95 10-132 31s-66 50-87 89c-21 38-31 83-31 135s10 97 31 135 50 67 87 88 81 31 132 31 95-10 132-31 66-50 87-88 31-83 31-135-10-97-31-135c-21-39-50-68-87-89s-81-31-132-31m0 95c37 0 67 14 90 41s34 66 34 119-11 93-34 120c-23 26-53 39-90 39s-67-13-90-39c-23-27-34-67-34-120s11-92 34-119 53-41 90-41m47 475c-7-9-15-15-24-16s-18 0-27 5-15 11-18 20c-4 9-3 18 2 29l76 149c7 15 18 24 31 27 13 2 26 0 39-7 12-7 20-16 25-28 5-13 2-26-7-39z"/><glyph unicode="ŏ" horiz-adv-x="576" d="M288-10c-51 0-95 10-132 31s-66 50-87 89c-21 38-31 83-31 135s10 97 31 135 50 67 87 88 81 31 132 31 95-10 132-31 66-50 87-88 31-83 31-135-10-97-31-135c-21-39-50-68-87-89s-81-31-132-31m0 95c37 0 67 14 90 41s34 66 34 119-11 93-34 120c-23 26-53 39-90 39s-67-13-90-39c-23-27-34-67-34-120s11-92 34-119 53-41 90-41m0 466c-47 0-84 15-111 45-27 29-45 66-52 111-2 13 0 24 7 33 6 8 14 12 25 13 23 1 37-11 41-36 5-30 16-52 32-67s35-23 58-23 42 8 59 23c16 15 26 37 31 67 4 25 18 37 41 36 11-1 20-5 26-13 6-9 8-20 6-33-7-45-24-82-51-111-27-30-65-45-112-45z"/><glyph unicode="ô" horiz-adv-x="576" d="M288-10c-51 0-95 10-132 31s-66 50-87 89c-21 38-31 83-31 135s10 97 31 135 50 67 87 88 81 31 132 31 95-10 132-31 66-50 87-88 31-83 31-135-10-97-31-135c-21-39-50-68-87-89s-81-31-132-31m0 95c37 0 67 14 90 41s34 66 34 119-11 93-34 120c-23 26-53 39-90 39s-67-13-90-39c-23-27-34-67-34-120s11-92 34-119 53-41 90-41m142 512c6-11 7-20 4-29s-9-15-17-19c-8-5-16-6-25-5s-17 7-23 16l-81 126-81-126c-6-9-13-15-22-16s-18 0-26 5c-8 4-14 10-17 19s-2 18 4 29l72 132c16 30 39 45 70 45s55-15 71-45z"/><glyph unicode="ố" horiz-adv-x="576" d="M288-10c-51 0-95 10-132 31s-66 50-87 89c-21 38-31 83-31 135s10 97 31 135 50 67 87 88 81 31 132 31 95-10 132-31 66-50 87-88 31-83 31-135-10-97-31-135c-21-39-50-68-87-89s-81-31-132-31m0 95c37 0 67 14 90 41s34 66 34 119-11 93-34 120c-23 26-53 39-90 39s-67-13-90-39c-23-27-34-67-34-120s11-92 34-119 53-41 90-41m175 569c-8-10-17-14-28-13s-19 6-24 15c-6 9-5 20 2 33l62 110c7 13 17 21 28 23 11 1 22-1 32-6 9-6 16-14 19-25s-1-22-10-34M207 558c-11-12-22-17-34-15-12 1-21 7-26 18-6 10-5 21 4 34l65 97c10 15 21 25 33 31 11 5 24 8 39 8s29-3 41-8c11-6 22-16 31-31l65-97c9-13 10-24 5-34-5-11-14-17-25-18-12-2-24 3-35 15l-82 91z"/><glyph unicode="ộ" horiz-adv-x="576" d="M288-10c-51 0-95 10-132 31s-66 50-87 89c-21 38-31 83-31 135s10 97 31 135 50 67 87 88 81 31 132 31 95-10 132-31 66-50 87-88 31-83 31-135-10-97-31-135c-21-39-50-68-87-89s-81-31-132-31m0 95c37 0 67 14 90 41s34 66 34 119-11 93-34 120c-23 26-53 39-90 39s-67-13-90-39c-23-27-34-67-34-120s11-92 34-119 53-41 90-41m0-294c-43 0-65 21-65 63 0 41 22 62 65 62 44 0 66-21 66-62 0-42-22-63-66-63m142 806c6-11 7-20 4-29s-9-15-17-19c-8-5-16-6-25-5s-17 7-23 16l-81 126-81-126c-6-9-13-15-22-16s-18 0-26 5c-8 4-14 10-17 19s-2 18 4 29l72 132c16 30 39 45 70 45s55-15 71-45z"/><glyph unicode="ồ" horiz-adv-x="576" d="M288-10c-51 0-95 10-132 31s-66 50-87 89c-21 38-31 83-31 135s10 97 31 135 50 67 87 88 81 31 132 31 95-10 132-31 66-50 87-88 31-83 31-135-10-97-31-135c-21-39-50-68-87-89s-81-31-132-31m0 95c37 0 67 14 90 41s34 66 34 119-11 93-34 120c-23 26-53 39-90 39s-67-13-90-39c-23-27-34-67-34-120s11-92 34-119 53-41 90-41m154 569l-81 103c-9 12-12 23-9 34s9 19 19 25c9 5 20 7 31 6 11-2 21-10 28-23l62-110c7-13 8-24 3-33-6-9-14-14-25-15s-20 3-28 13m-235-96c-11-12-22-17-34-15-12 1-21 7-26 18-6 10-5 21 4 34l65 97c10 15 21 25 33 31 11 5 24 8 39 8s29-3 41-8c11-6 22-16 31-31l65-97c9-13 10-24 5-34-5-11-14-17-25-18-12-2-24 3-35 15l-82 91z"/><glyph unicode="ổ" horiz-adv-x="576" d="M288-10c-51 0-95 10-132 31s-66 50-87 89c-21 38-31 83-31 135s10 97 31 135 50 67 87 88 81 31 132 31 95-10 132-31 66-50 87-88 31-83 31-135-10-97-31-135c-21-39-50-68-87-89s-81-31-132-31m0 95c37 0 67 14 90 41s34 66 34 119-11 93-34 120c-23 26-53 39-90 39s-67-13-90-39c-23-27-34-67-34-120s11-92 34-119 53-41 90-41m161 569c-9-5-17-5-26-2s-14 8-16 15c-3 7 0 14 8 21 11 9 19 17 26 24 6 7 9 15 9 24 0 16-12 24-37 24-5 0-10 0-15-1l-18-3c-19-5-31 0-36 15-5 17 2 28 21 34 11 3 23 6 36 7 12 1 25 2 38 2 29 0 52-5 69-14 16-9 24-24 24-45 0-13-4-26-13-39s-19-25-32-35c-13-11-25-20-38-27m-242-96c-11-12-22-17-34-15-12 1-21 7-26 18-6 10-5 21 4 34l65 97c10 15 21 25 33 31 11 5 24 8 39 8s29-3 41-8c11-6 22-16 31-31l65-97c9-13 10-24 5-34-5-11-14-17-25-18-12-2-24 3-35 15l-82 91z"/><glyph unicode="ỗ" horiz-adv-x="576" d="M288-10c-51 0-95 10-132 31s-66 50-87 89c-21 38-31 83-31 135s10 97 31 135 50 67 87 88 81 31 132 31 95-10 132-31 66-50 87-88 31-83 31-135-10-97-31-135c-21-39-50-68-87-89s-81-31-132-31m0 95c37 0 67 14 90 41s34 66 34 119-11 93-34 120c-23 26-53 39-90 39s-67-13-90-39c-23-27-34-67-34-120s11-92 34-119 53-41 90-41M147 710c-9 1-16 4-21 11s-7 15-4 26c7 25 19 43 37 56 17 13 38 19 63 19 18 0 34-4 49-11s29-15 42-22 25-11 38-11c10 0 19 2 27 6 8 3 14 9 17 18 6 15 18 23 35 22 9-1 17-4 22-10 5-7 6-16 3-27-7-25-19-43-36-56-18-13-39-19-64-19-18 0-34 4-49 11s-29 15-42 22-25 11-38 11c-10 0-19-2-27-5-8-4-14-10-17-19-6-15-18-23-35-22m51-158c-11-9-21-11-31-8-11 3-18 9-21 18-4 9-2 18 6 27l59 70c11 13 23 23 36 28s26 7 41 7 30-2 43-7 24-15 35-28l58-70c8-9 10-19 7-28-4-9-11-15-21-18s-21 0-32 9l-90 74z"/><glyph unicode="ȍ" horiz-adv-x="576" d="M288-10c-51 0-95 10-132 31s-66 50-87 89c-21 38-31 83-31 135s10 97 31 135 50 67 87 88 81 31 132 31 95-10 132-31 66-50 87-88 31-83 31-135-10-97-31-135c-21-39-50-68-87-89s-81-31-132-31m0 95c37 0 67 14 90 41s34 66 34 119-11 93-34 120c-23 26-53 39-90 39s-67-13-90-39c-23-27-34-67-34-120s11-92 34-119 53-41 90-41M179 564l-65 148c-7 16-7 29 0 40 6 10 16 17 29 20s25 2 37-3 20-16 24-33l38-153c3-13 1-24-8-31s-19-10-30-8c-11 1-20 8-25 20m148 0l-65 148c-7 16-7 29 0 40 7 10 16 17 29 20s25 2 38-3c12-5 20-16 24-33l37-153c3-13 1-24-8-31s-19-10-30-8c-11 1-20 8-25 20z"/><glyph unicode="ö" horiz-adv-x="576" d="M288-10c-51 0-95 10-132 31s-66 50-87 89c-21 38-31 83-31 135s10 97 31 135 50 67 87 88 81 31 132 31 95-10 132-31 66-50 87-88 31-83 31-135-10-97-31-135c-21-39-50-68-87-89s-81-31-132-31m0 95c37 0 67 14 90 41s34 66 34 119-11 93-34 120c-23 26-53 39-90 39s-67-13-90-39c-23-27-34-67-34-120s11-92 34-119 53-41 90-41m95 508c-41 0-62 21-62 62s21 61 62 61 61-20 61-61-20-62-61-62m-189 0c-19 0-34 5-45 16s-17 26-17 46c0 19 6 34 17 45s26 16 45 16c41 0 62-20 62-61s-21-62-62-62z"/><glyph unicode="ȫ" horiz-adv-x="576" d="M288-10c-51 0-95 10-132 31s-66 50-87 89c-21 38-31 83-31 135s10 97 31 135 50 67 87 88 81 31 132 31 95-10 132-31 66-50 87-88 31-83 31-135-10-97-31-135c-21-39-50-68-87-89s-81-31-132-31m0 95c37 0 67 14 90 41s34 66 34 119-11 93-34 120c-23 26-53 39-90 39s-67-13-90-39c-23-27-34-67-34-120s11-92 34-119 53-41 90-41M168 708c-28 0-42 12-42 37s14 37 42 37h240c28 0 42-12 42-37s-14-37-42-37M194 567c-19 0-34 4-45 13s-17 21-17 36 6 27 17 36c11 8 26 12 45 12 41 0 62-16 62-48 0-33-21-49-62-49m189 0c-41 0-62 16-62 49 0 32 21 48 62 48s61-16 61-48c0-33-20-49-61-49z"/><glyph unicode="ȱ" horiz-adv-x="576" d="M288-10c-51 0-95 10-132 31s-66 50-87 89c-21 38-31 83-31 135s10 97 31 135 50 67 87 88 81 31 132 31 95-10 132-31 66-50 87-88 31-83 31-135-10-97-31-135c-21-39-50-68-87-89s-81-31-132-31m0 95c37 0 67 14 90 41s34 66 34 119-11 93-34 120c-23 26-53 39-90 39s-67-13-90-39c-23-27-34-67-34-120s11-92 34-119 53-41 90-41M168 708c-28 0-42 12-42 37s14 37 42 37h240c28 0 42-12 42-37s-14-37-42-37M289 567c-19 0-34 4-45 13s-17 21-17 36 6 27 17 36c11 8 26 12 45 12 41 0 62-16 62-48 0-33-21-49-62-49z"/><glyph unicode="ọ" horiz-adv-x="576" d="M288-10c-51 0-95 10-132 31s-66 50-87 89c-21 38-31 83-31 135s10 97 31 135 50 67 87 88 81 31 132 31 95-10 132-31 66-50 87-88 31-83 31-135-10-97-31-135c-21-39-50-68-87-89s-81-31-132-31m0 95c37 0 67 14 90 41s34 66 34 119-11 93-34 120c-23 26-53 39-90 39s-67-13-90-39c-23-27-34-67-34-120s11-92 34-119 53-41 90-41m0-294c-43 0-65 21-65 63 0 41 22 62 65 62 44 0 66-21 66-62 0-42-22-63-66-63z"/><glyph unicode="ò" horiz-adv-x="576" d="M288-10c-51 0-95 10-132 31s-66 50-87 89c-21 38-31 83-31 135s10 97 31 135 50 67 87 88 81 31 132 31 95-10 132-31 66-50 87-88 31-83 31-135-10-97-31-135c-21-39-50-68-87-89s-81-31-132-31m0 95c37 0 67 14 90 41s34 66 34 119-11 93-34 120c-23 26-53 39-90 39s-67-13-90-39c-23-27-34-67-34-120s11-92 34-119 53-41 90-41m-46 475l-97 140c-9 14-12 27-7 39s13 21 25 28 25 9 38 7c13-3 24-12 32-27l75-149c5-11 6-20 3-29s-9-15-18-20-18-6-27-5-17 7-24 16z"/><glyph unicode="ỏ" horiz-adv-x="576" d="M288-10c-51 0-95 10-132 31s-66 50-87 89c-21 38-31 83-31 135s10 97 31 135 50 67 87 88 81 31 132 31 95-10 132-31 66-50 87-88 31-83 31-135-10-97-31-135c-21-39-50-68-87-89s-81-31-132-31m0 95c37 0 67 14 90 41s34 66 34 119-11 93-34 120c-23 26-53 39-90 39s-67-13-90-39c-23-27-34-67-34-120s11-92 34-119 53-41 90-41m0 461c-25 0-38 9-38 27 0 15 3 27 9 37 5 9 12 18 19 25s14 13 20 20c5 6 8 13 8 22 0 17-13 25-40 25-5 0-11 0-17-1s-12-2-19-4c-11-3-20-4-26-2-7 1-12 6-15 15-7 19 0 33 21 42 12 5 25 8 40 10 14 2 29 3 44 3 33 0 60-6 79-18 19-13 28-31 28-54 0-17-4-30-11-40-8-11-17-20-26-27-10-7-19-15-26-23-8-9-12-19-12-32 0-17-13-25-38-25z"/><glyph unicode="ơ" horiz-adv-x="576" d="M288-10c-51 0-95 10-132 31s-66 50-87 89c-21 38-31 83-31 135s10 97 31 135 50 67 87 88 81 31 132 31 95-10 132-31 66-50 87-88 31-83 31-135-10-97-31-135c-21-39-50-68-87-89s-81-31-132-31m0 95c37 0 67 14 90 41s34 66 34 119-11 93-34 120c-23 26-53 39-90 39s-67-13-90-39c-23-27-34-67-34-120s11-92 34-119 53-41 90-41m130 340l-71 45v19c37 1 63 9 77 24 13 15 20 36 20 65 0 27 18 41 55 41 36 0 54-13 54-40 0-43-12-79-36-106-25-28-58-44-99-48z"/></font>
</svg>
